  0
SECTION
  2
HEADER
  9
$ACADVER
  1
AC1015
  9
$ACADMAINTVER
 70
    20
  9
$DWGCODEPAGE
  3
ANSI_1252
  9
$INSBASE
 10
0.0
 20
0.0
 30
0.0
  9
$EXTMIN
 10
144.5824436284094
 20
47.81600502772517
 30
0.0
  9
$EXTMAX
 10
909.7212584647477
 20
455.2115707705186
 30
0.0
  9
$LIMMIN
 10
0.0
 20
0.0
  9
$LIMMAX
 10
420.0
 20
297.0
  9
$ORTHOMODE
 70
     1
  9
$REGENMODE
 70
     1
  9
$FILLMODE
 70
     1
  9
$QTEXTMODE
 70
     0
  9
$MIRRTEXT
 70
     1
  9
$LTSCALE
 40
1.0
  9
$ATTMODE
 70
     2
  9
$TEXTSIZE
 40
2.5
  9
$TRACEWID
 40
1.0
  9
$TEXTSTYLE
  7
Standard
  9
$CLAYER
  8
linie2
  9
$CELTYPE
  6
ByLayer
  9
$CECOLOR
 62
   256
  9
$CELTSCALE
 40
1.0
  9
$DISPSILH
 70
     0
  9
$DIMSCALE
 40
1.0
  9
$DIMASZ
 40
2.5
  9
$DIMEXO
 40
0.625
  9
$DIMDLI
 40
3.75
  9
$DIMRND
 40
0.0
  9
$DIMDLE
 40
0.0
  9
$DIMEXE
 40
1.25
  9
$DIMTP
 40
0.0
  9
$DIMTM
 40
0.0
  9
$DIMTXT
 40
2.5
  9
$DIMCEN
 40
2.5
  9
$DIMTSZ
 40
0.0
  9
$DIMTOL
 70
     0
  9
$DIMLIM
 70
     0
  9
$DIMTIH
 70
     0
  9
$DIMTOH
 70
     0
  9
$DIMSE1
 70
     0
  9
$DIMSE2
 70
     0
  9
$DIMTAD
 70
     1
  9
$DIMZIN
 70
     8
  9
$DIMBLK
  1

  9
$DIMASO
 70
     1
  9
$DIMSHO
 70
     1
  9
$DIMPOST
  1

  9
$DIMAPOST
  1

  9
$DIMALT
 70
     0
  9
$DIMALTD
 70
     3
  9
$DIMALTF
 40
0.03937007874016
  9
$DIMLFAC
 40
1.0
  9
$DIMTOFL
 70
     1
  9
$DIMTVP
 40
0.0
  9
$DIMTIX
 70
     0
  9
$DIMSOXD
 70
     0
  9
$DIMSAH
 70
     0
  9
$DIMBLK1
  1

  9
$DIMBLK2
  1

  9
$DIMSTYLE
  2
ISO-25
  9
$DIMCLRD
 70
     0
  9
$DIMCLRE
 70
     0
  9
$DIMCLRT
 70
     0
  9
$DIMTFAC
 40
1.0
  9
$DIMGAP
 40
0.625
  9
$DIMJUST
 70
     0
  9
$DIMSD1
 70
     0
  9
$DIMSD2
 70
     0
  9
$DIMTOLJ
 70
     0
  9
$DIMTZIN
 70
     8
  9
$DIMALTZ
 70
     0
  9
$DIMALTTZ
 70
     0
  9
$DIMUPT
 70
     0
  9
$DIMDEC
 70
     2
  9
$DIMTDEC
 70
     2
  9
$DIMALTU
 70
     2
  9
$DIMALTTD
 70
     3
  9
$DIMTXSTY
  7
Standard
  9
$DIMAUNIT
 70
     0
  9
$DIMADEC
 70
     0
  9
$DIMALTRND
 40
0.0
  9
$DIMAZIN
 70
     0
  9
$DIMDSEP
 70
    44
  9
$DIMATFIT
 70
     3
  9
$DIMFRAC
 70
     0
  9
$DIMLDRBLK
  1

  9
$DIMLUNIT
 70
     2
  9
$DIMLWD
 70
    -2
  9
$DIMLWE
 70
    -2
  9
$DIMTMOVE
 70
     0
  9
$LUNITS
 70
     2
  9
$LUPREC
 70
     2
  9
$SKETCHINC
 40
1.0
  9
$FILLETRAD
 40
0.5
  9
$AUNITS
 70
     0
  9
$AUPREC
 70
     0
  9
$MENU
  1
.
  9
$ELEVATION
 40
0.0
  9
$PELEVATION
 40
0.0
  9
$THICKNESS
 40
0.0
  9
$LIMCHECK
 70
     0
  9
$CHAMFERA
 40
10.0
  9
$CHAMFERB
 40
10.0
  9
$CHAMFERC
 40
2.0
  9
$CHAMFERD
 40
0.7853981633974483
  9
$SKPOLY
 70
     0
  9
$TDCREATE
 40
2451730.527086343
  9
$TDUCREATE
 40
2451730.443753009
  9
$TDUPDATE
 40
2454656.356393947
  9
$TDUUPDATE
 40
2454656.273060614
  9
$TDINDWG
 40
0.5307542245
  9
$TDUSRTIMER
 40
0.5307542245
  9
$USRTIMER
 70
     1
  9
$ANGBASE
 50
0.0
  9
$ANGDIR
 70
     0
  9
$PDMODE
 70
     0
  9
$PDSIZE
 40
0.0
  9
$PLINEWID
 40
0.0
  9
$SPLFRAME
 70
     0
  9
$SPLINETYPE
 70
     6
  9
$SPLINESEGS
 70
     8
  9
$HANDSEED
  5
1D2E
  9
$SURFTAB1
 70
     6
  9
$SURFTAB2
 70
     6
  9
$SURFTYPE
 70
     6
  9
$SURFU
 70
     6
  9
$SURFV
 70
     6
  9
$UCSBASE
  2

  9
$UCSNAME
  2

  9
$UCSORG
 10
0.0
 20
0.0
 30
0.0
  9
$UCSXDIR
 10
1.0
 20
0.0
 30
0.0
  9
$UCSYDIR
 10
0.0
 20
1.0
 30
0.0
  9
$UCSORTHOREF
  2

  9
$UCSORTHOVIEW
 70
     0
  9
$UCSORGTOP
 10
0.0
 20
0.0
 30
0.0
  9
$UCSORGBOTTOM
 10
0.0
 20
0.0
 30
0.0
  9
$UCSORGLEFT
 10
0.0
 20
0.0
 30
0.0
  9
$UCSORGRIGHT
 10
0.0
 20
0.0
 30
0.0
  9
$UCSORGFRONT
 10
0.0
 20
0.0
 30
0.0
  9
$UCSORGBACK
 10
0.0
 20
0.0
 30
0.0
  9
$PUCSBASE
  2

  9
$PUCSNAME
  2

  9
$PUCSORG
 10
0.0
 20
0.0
 30
0.0
  9
$PUCSXDIR
 10
1.0
 20
0.0
 30
0.0
  9
$PUCSYDIR
 10
0.0
 20
1.0
 30
0.0
  9
$PUCSORTHOREF
  2

  9
$PUCSORTHOVIEW
 70
     0
  9
$PUCSORGTOP
 10
0.0
 20
0.0
 30
0.0
  9
$PUCSORGBOTTOM
 10
0.0
 20
0.0
 30
0.0
  9
$PUCSORGLEFT
 10
0.0
 20
0.0
 30
0.0
  9
$PUCSORGRIGHT
 10
0.0
 20
0.0
 30
0.0
  9
$PUCSORGFRONT
 10
0.0
 20
0.0
 30
0.0
  9
$PUCSORGBACK
 10
0.0
 20
0.0
 30
0.0
  9
$USERI1
 70
     0
  9
$USERI2
 70
     0
  9
$USERI3
 70
     0
  9
$USERI4
 70
     0
  9
$USERI5
 70
     0
  9
$USERR1
 40
0.0
  9
$USERR2
 40
0.0
  9
$USERR3
 40
0.0
  9
$USERR4
 40
0.0
  9
$USERR5
 40
0.0
  9
$WORLDVIEW
 70
     1
  9
$SHADEDGE
 70
     3
  9
$SHADEDIF
 70
    70
  9
$TILEMODE
 70
     0
  9
$MAXACTVP
 70
    64
  9
$PINSBASE
 10
0.0
 20
0.0
 30
0.0
  9
$PLIMCHECK
 70
     0
  9
$PEXTMIN
 10
2.453374479051262
 20
2.063068298814414
 30
0.0
  9
$PEXTMAX
 10
288.579499716308
 20
188.389991326003
 30
0.0
  9
$PLIMMIN
 10
-3.17498779296875
 20
-4.180416584014892
  9
$PLIMMAX
 10
293.8356628417969
 20
205.7929110527039
  9
$UNITMODE
 70
     0
  9
$VISRETAIN
 70
     1
  9
$PLINEGEN
 70
     0
  9
$PSLTSCALE
 70
     1
  9
$TREEDEPTH
 70
  3020
  9
$CMLSTYLE
  2
Standard
  9
$CMLJUST
 70
     0
  9
$CMLSCALE
 40
20.0
  9
$PROXYGRAPHICS
 70
     1
  9
$MEASUREMENT
 70
     1
  9
$CELWEIGHT
370
    -1
  9
$ENDCAPS
280
     0
  9
$JOINSTYLE
280
     0
  9
$LWDISPLAY
290
     0
  9
$INSUNITS
 70
     4
  9
$HYPERLINKBASE
  1

  9
$STYLESHEET
  1

  9
$XEDIT
290
     1
  9
$CEPSNTYPE
380
     0
  9
$PSTYLEMODE
290
     1
  9
$FINGERPRINTGUID
  2
{288E7505-51A7-11D4-9C0D-8C73428BE146}
  9
$VERSIONGUID
  2
{E8D44C8A-A372-448C-9BBC-FED41B5CAE7C}
  9
$EXTNAMES
290
     1
  9
$PSVPSCALE
 40
0.0
  9
$OLESTARTUP
290
     0
  0
ENDSEC
  0
SECTION
  2
CLASSES
  0
CLASS
  1
ACDBDICTIONARYWDFLT
  2
AcDbDictionaryWithDefault
  3
ObjectDBX Classes
 90
        0
280
     0
281
     0
  0
CLASS
  1
ACDBPLACEHOLDER
  2
AcDbPlaceHolder
  3
ObjectDBX Classes
 90
        0
280
     0
281
     0
  0
CLASS
  1
LAYOUT
  2
AcDbLayout
  3
ObjectDBX Classes
 90
        0
280
     0
281
     0
  0
CLASS
  1
DICTIONARYVAR
  2
AcDbDictionaryVar
  3
ObjectDBX Classes
 90
        0
280
     0
281
     0
  0
CLASS
  1
ACME_DOCUMENT
  2
AcMeDbDoc
  3
AcMeServices
 90
        0
280
     0
281
     0
  0
CLASS
  1
ACMESCOPE
  2
AcMeScope
  3
AcMeServices
 90
        0
280
     0
281
     0
  0
CLASS
  1
ACMECOMMANDHISTORY
  2
AcMeCommandHistory
  3
AcMeServices
 90
        0
280
     0
281
     0
  0
CLASS
  1
ACIMSYSVARMAN
  2
AcImSysVarManager
  3
AcMeServices
 90
        0
280
     0
281
     0
  0
CLASS
  1
ACIMREALSYSVAR
  2
AcImRealSysVar
  3
AcMeServices
 90
        0
280
     0
281
     0
  0
CLASS
  1
ACIMINTSYSVAR
  2
AcImIntSysVar
  3
AcMeServices
 90
        0
280
     0
281
     0
  0
CLASS
  1
ACMEDRAWINGMAN
  2
AcMeDrawingMan
  3
AcMeServices
 90
        0
280
     0
281
     0
  0
CLASS
  1
ACMEVIEW
  2
AcMeView
  3
AcMeServices
 90
        0
280
     0
281
     0
  0
CLASS
  1
ACDBENTITYCACHE
  2
AcMeEntityCache
  3
AcMeServices
 90
        0
280
     0
281
     0
  0
CLASS
  1
GSMANAGER
  2
AcMeGSManager
  3
AcMeServices
 90
        0
280
     0
281
     0
  0
CLASS
  1
AMDTINTERNALREACTOR
  2
AmdtInternalReactor
  3
AcMeServices
 90
        0
280
     0
281
     0
  0
CLASS
  1
ACMESTATEMGR
  2
AcMeStateMgr
  3
AcMeServices
 90
        0
280
     0
281
     0
  0
CLASS
  1
ACGREFMASTER
  2
AcGrefMaster
  3
AcAttribServices
 90
        0
280
     0
281
     0
  0
CLASS
  1
AM_DRAWING_MGR
  2
AcDmDwgMgr
  3
AcMechDwgViewMgmt
 90
        0
280
     0
281
     0
  0
CLASS
  1
AM_DWG_DOCUMENT
  2
AcDmDwgDocument
  3
AcMechDwgViewMgmt
 90
        0
280
     0
281
     0
  0
CLASS
  1
AM_DWG_SHEET
  2
AcDmSheet
  3
AcMechDwgViewMgmt
 90
        0
280
     0
281
     0
  0
CLASS
  1
AM_VIEWDIMPARMAP
  2
AcDmViewDimParMap
  3
AcMechDwgViewMgmt
 90
        0
280
     0
281
     0
  0
CLASS
  1
AM_DWGMGR_NAME
  2
AcDmDwgMgrName
  3
AcMechDwgViewMgmt
 90
        0
280
     0
281
     0
  0
CLASS
  1
ACME_DATABASE
  2
AcMeDbDatabase
  3
AcMeServices
 90
        0
280
     0
281
     0
  0
CLASS
  1
ACRFINSADJUSTERMGR
  2
AcRfInsAdjusterMgr
  3
AcMeServices
 90
        0
280
     0
281
     0
  0
CLASS
  1
ACGREFACADMASTER
  2
AcGrefacadMaster
  3
AcGrefServices
 90
        0
280
     0
281
     0
  0
CLASS
  1
AMDTMENUSTATEMGR
  2
AmdtMenuStateMgr
  3
McadcomServices
 90
        0
280
     0
281
     0
  0
CLASS
  1
AMDTMCOMMENUSTATE
  2
AmdtMcomMenuState
  3
McadcomServices
 90
        0
280
     0
281
     0
  0
CLASS
  1
AMIMASTER
  2
AmiMaster
  3
AmiServices
 90
        0
280
     0
281
     0
  0
CLASS
  1
AMGSETTINGSOBJ
  2
AmgSettingsObj
  3
"AcadM|Product Description: AutoCAD Mechanical 2000|Company: Autodesk"
 90
        0
280
     0
281
     0
  0
CLASS
  1
ASAPP
  2
AcAsAppObject
  3
AutoSurfServices
 90
        0
280
     0
281
     0
  0
CLASS
  1
IM_STATIC_MAN
  2
AcImStaticVarManager
  3
AcMeServices
 90
        0
280
     0
281
     0
  0
CLASS
  1
ACIMSTRSYSVAR
  2
AcImStrSysVar
  3
AcMeServices
 90
        0
280
     0
281
     0
  0
CLASS
  1
ACIMDBLSTATICVAR
  2
AcImDblStaticVar
  3
AcMeServices
 90
    32768
280
     0
281
     0
  0
CLASS
  1
ACIMSTRSTATICVAR
  2
AcImStrStaticVar
  3
AcMeServices
 90
    32768
280
     0
281
     0
  0
CLASS
  1
ACIMINTSTATICVAR
  2
AcImIntStaticVar
  3
AcMeServices
 90
    32768
280
     0
281
     0
  0
CLASS
  1
ACASGREFMASTER
  2
AcAsGrefMaster
  3
AutoSurfResolverServices
 90
        0
280
     0
281
     0
  0
CLASS
  1
ACADGREFMODULE
  2
AcAdGrefModule
  3
AdGrefServices
 90
        0
280
     0
281
     0
  0
CLASS
  1
AMDTMAPISURFMOUDULE
  2
AmdtMApiSurfModule
  3
MApiSurfServices
 90
        0
280
     0
281
     0
  0
CLASS
  1
MAPIAMMOUDLE
  2
MApiAmModule
  3
MApiAmServices
 90
        0
280
     0
281
     0
  0
CLASS
  1
AMDTADMENUSTATE
  2
AmdtAdMenuState
  3
DesignerServices
 90
        0
280
     0
281
     0
  0
CLASS
  1
ADAPPL
  2
AcAdAppl
  3
DesignerServices
 90
        0
280
     0
281
     0
  0
CLASS
  1
DEPMGR
  2
AcAdDepMgr
  3
DesignerServices
 90
        0
280
     0
281
     0
  0
CLASS
  1
PARAMMGR
  2
AcAdParamMgr
  3
DesignerServices
 90
        0
280
     0
281
     0
  0
CLASS
  1
PARAMSCOPE
  2
AcAdParamScope
  3
DesignerServices
 90
        0
280
     0
281
     0
  0
CLASS
  1
NAMEDAPPL
  2
AcAdNamedAppl
  3
DesignerServices
 90
        0
280
     0
281
     0
  0
CLASS
  1
AMDTDMMENUSTATE
  2
AmdtDmMenuState
  3
AcMechDwgViewMgmt
 90
        0
280
     0
281
     0
  0
CLASS
  1
MAPIADMODULE
  2
MApiAdModule
  3
MApiAdServices
 90
        0
280
     0
281
     0
  0
CLASS
  1
AMDTAMMENUSTATE
  2
AmdtAmMenuState
  3
DesignerAssemblies
 90
        0
280
     0
281
     0
  0
CLASS
  1
ACAMPROJECT
  2
AcAmProject
  3
DesignerAssemblies
 90
        0
280
     0
281
     0
  0
CLASS
  1
ACAMGRCOMPDEF
  2
AcAmGrCompDef
  3
DesignerAssemblies
 90
        0
280
     0
281
     0
  0
CLASS
  1
ACCMCONTEXT
  2
AcCmContext
  3
DesignerAssemblies
 90
        0
280
     0
281
     0
  0
CLASS
  1
ACAMCOMPDEF
  2
AcAmCompDef
  3
DesignerAssemblies
 90
        0
280
     0
281
     0
  0
CLASS
  1
ACAMCOMPDEFMGR
  2
AcAmCompDefMgr
  3
DesignerAssemblies
 90
        0
280
     0
281
     0
  0
CLASS
  1
AMCONTEXTMGR
  2
AcAmContextMgr
  3
DesignerAssemblies
 90
        0
280
     0
281
     0
  0
CLASS
  1
ACAMCONTEXTMODELER
  2
AcAmContextModeler
  3
DesignerAssemblies
 90
        0
280
     0
281
     0
  0
CLASS
  1
ACMDATADICTIONARY
  2
AcmDataDictionary
  3
"AcmSymBB|Product Description: AutoCAD Mechanical 2004 DX|Company: Autodesk"
 90
        0
280
     0
281
     0
  0
CLASS
  1
CATALOGSTATE
  2
AcAmCatalogState
  3
DesignerAssemblies
 90
        0
280
     0
281
     0
  0
CLASS
  1
ACAMGRCOMPDEFSET
  2
AcAmGrCompDefSet
  3
DesignerAssemblies
 90
        0
280
     0
281
     0
  0
CLASS
  1
AMDTBROWSERDBTAB
  2
AmdtBrowserDbTab
  3
McadcomServices
 90
        0
280
     0
281
     0
  0
CLASS
  1
CBROWSERAPPOBJECT
  2
CBrowserAppObject
  3
McadcomServices
 90
        0
280
     0
281
     0
  0
CLASS
  1
DM_PLACEHOLDER
  2
AcDmSelsetPlaceholder
  3
AcMechDwgViewMgmt
 90
        0
280
     0
281
     0
  0
CLASS
  1
ACMSTANDARDDIN
  2
AcmStandardDIN
  3
"Amdt_StdImp|Product Description: AutoCAD Mechanical 2004 DX|Company: Autodesk"
 90
        0
280
     0
281
     0
  0
CLASS
  1
AMGOBJPROPCFG
  2
AmgObjPropCfg
  3
"AmgLay|Product Description: AutoCAD Mechanical 2000|Company: Autodesk"
 90
        1
280
     0
281
     0
  0
CLASS
  1
AMDTEDGESTANDARDDIN
  2
AmdtEdgeStdDIN
  3
"Amdt_StdImp|Product Description: AutoCAD Mechanical 2004 DX|Company: Autodesk"
 90
        0
280
     0
281
     0
  0
CLASS
  1
ACMSURFSTANDARDDIN
  2
AcmSurfTextStdDIN
  3
"Amdt_StdImp|Product Description: AutoCAD Mechanical 2004 DX|Company: Autodesk"
 90
        0
280
     0
281
     0
  0
CLASS
  1
ACMFCFSTANDARDDIN
  2
AcmFCFStdDIN
  3
"Amdt_StdImp|Product Description: AutoCAD Mechanical 2004 DX|Company: Autodesk"
 90
        0
280
     0
281
     0
  0
CLASS
  1
ACMWELDSTANDARDDIN
  2
AcmWeldingStdDIN
  3
"Amdt_StdImp|Product Description: AutoCAD Mechanical 2004 DX|Company: Autodesk"
 90
        0
280
     0
281
     0
  0
CLASS
  1
ACMIDSTANDARDDIN
  2
AcmIdStdDIN
  3
"Amdt_StdImp|Product Description: AutoCAD Mechanical 2004 DX|Company: Autodesk"
 90
        0
280
     0
281
     0
  0
CLASS
  1
ACMDATUMSTANDARDDIN
  2
AcmDatumStdDIN
  3
"Amdt_StdImp|Product Description: AutoCAD Mechanical 2004 DX|Company: Autodesk"
 90
        0
280
     0
281
     0
  0
CLASS
  1
ACMBOMSTANDARDDIN
  2
AcmBOMStdDIN
  3
"Amdt_StdImp|Product Description: AutoCAD Mechanical 2004 DX|Company: Autodesk"
 90
        0
280
     0
281
     0
  0
CLASS
  1
ACMDETAILSTANDARDDIN
  2
AmdtDetailSymStdDIN
  3
"Amdt_StdImp|Product Description: AutoCAD Mechanical 2004 DX|Company: Autodesk"
 90
        0
280
     0
281
     0
  0
CLASS
  1
ACMSECTIONSTANDARDDIN
  2
AmdtSectionSymStdDIN
  3
"Amdt_StdImp|Product Description: AutoCAD Mechanical 2004 DX|Company: Autodesk"
 90
        0
280
     0
281
     0
  0
CLASS
  1
ACMCENTERLINESTANDARDDIN
  2
AmdtCenterLineStdDIN
  3
"Amdt_StdImp|Product Description: AutoCAD Mechanical 2004 DX|Company: Autodesk"
 90
        0
280
     0
281
     0
  0
CLASS
  1
ACMTHREADLINESTANDARDDIN
  2
AmdtThreadLineStdDIN
  3
"Amdt_StdImp|Product Description: AutoCAD Mechanical 2004 DX|Company: Autodesk"
 90
        0
280
     0
281
     0
  0
CLASS
  1
ACMNOTESTANDARDDIN
  2
AmdtNoteStdDIN
  3
"Amdt_StdImp|Product Description: AutoCAD Mechanical 2004 DX|Company: Autodesk"
 90
        0
280
     0
281
     0
  0
CLASS
  1
AMDTNOTETEMPLATEDB
  2
AmdtNoteTemplateDB
  3
AMDT_STDIMP_MODULE_NAME
 90
        0
280
     0
281
     0
  0
CLASS
  1
ACAMGLAYSTD
  2
AcAmgLayStd
  3
"AcAmgLayStd|Product Description: AutoCAD Mechanical 2000|Company: Autodesk"
 90
        0
280
     0
281
     0
  0
CLASS
  1
ACAMGDIMSTD
  2
AcAmgDimStd
  3
"AcAmgDimStd|Product Description: AutoCAD Mechanical 2000|Company: Autodesk"
 90
        0
280
     0
281
     0
  0
CLASS
  1
ACAMGHOLECHARTSTDDIN
  2
AcAmgHoleChartStdDIN
  3
ACMSYMBB_MODULE_NAME
 90
        0
280
     0
281
     0
  0
CLASS
  1
ACAMGTITLESTD
  2
AcAmgTitleStd
  3
"TITLEAPP"
 90
        0
280
     0
281
     0
  0
CLASS
  1
LAYER_INDEX
  2
AcDbLayerIndex
  3
ObjectDBX Classes
 90
        0
280
     0
281
     0
  0
CLASS
  1
IDBUFFER
  2
AcDbIdBuffer
  3
ObjectDBX Classes
 90
        0
280
     0
281
     0
  0
CLASS
  1
ACAMGFILTERDAT
  2
AcAmgFilterDat
  3
"AcadM|Product Description: AutoCAD Mechanical 2000|Company: Autodesk"
 90
    32768
280
     0
281
     0
  0
CLASS
  1
ACRFATTGENMGR
  2
AcRfAttGeneralMgr
  3
AcAttribServices
 90
    32768
280
     0
281
     0
  0
ENDSEC
  0
SECTION
  2
TABLES
  0
TABLE
  2
VPORT
  5
8
330
0
100
AcDbSymbolTable
 70
     1
  0
VPORT
  5
1C0C
330
8
100
AcDbSymbolTableRecord
100
AcDbViewportTableRecord
  2
*Active
 70
     0
 10
0.0
 20
0.0
 11
1.0
 21
1.0
 12
276.4636724864166
 22
121.5650450220985
 13
0.0
 23
0.0
 14
10.0
 24
10.0
 15
10.0
 25
10.0
 16
0.0
 26
0.0
 36
1.0
 17
0.0
 27
0.0
 37
0.0
 40
230.1288949269838
 41
1.562737642585551
 42
50.0
 43
0.0
 44
0.0
 50
0.0
 51
0.0
 71
     0
 72
   100
 73
     1
 74
     3
 75
     0
 76
     0
 77
     0
 78
     0
281
     0
 65
     1
110
0.0
120
0.0
130
0.0
111
1.0
121
0.0
131
0.0
112
0.0
122
1.0
132
0.0
 79
     0
146
0.0
  0
ENDTAB
  0
TABLE
  2
LTYPE
  5
5
330
0
100
AcDbSymbolTable
 70
    24
  0
LTYPE
  5
14
330
5
100
AcDbSymbolTableRecord
100
AcDbLinetypeTableRecord
  2
ByBlock
 70
     0
  3

 72
    65
 73
     0
 40
0.0
  0
LTYPE
  5
15
330
5
100
AcDbSymbolTableRecord
100
AcDbLinetypeTableRecord
  2
ByLayer
 70
     0
  3

 72
    65
 73
     0
 40
0.0
  0
LTYPE
  5
16
330
5
100
AcDbSymbolTableRecord
100
AcDbLinetypeTableRecord
  2
Continuous
 70
     0
  3
Solid line
 72
    65
 73
     0
 40
0.0
  0
LTYPE
  5
125
330
5
100
AcDbSymbolTableRecord
100
AcDbLinetypeTableRecord
  2
ACAD_ISO10W100
 70
     0
  3
ISO Strichpunktlinie __ . __ . __ . __ . __ . _
 72
    65
 73
     4
 40
18.5
 49
12.0
 74
     0
 49
-3.0
 74
     0
 49
0.5
 74
     0
 49
-3.0
 74
     0
  0
LTYPE
  5
126
330
5
100
AcDbSymbolTableRecord
100
AcDbLinetypeTableRecord
  2
ACAD_ISO02W100
 70
     0
  3
ISO Strichlinie __ __ __ __ __ __ __ __ __ __ _
 72
    65
 73
     2
 40
15.0
 49
12.0
 74
     0
 49
-3.0
 74
     0
  0
LTYPE
  5
127
330
5
100
AcDbSymbolTableRecord
100
AcDbLinetypeTableRecord
  2
ACAD_ISO07W100
 70
     0
  3
ISO Punktiert . . . . . . . . . . . . . . . . .
 72
    65
 73
     2
 40
3.5
 49
0.5
 74
     0
 49
-3.0
 74
     0
  0
LTYPE
  5
928
330
5
100
AcDbSymbolTableRecord
100
AcDbLinetypeTableRecord
  2
HIDDEN
 70
     0
  3
Verdeckt
 72
    65
 73
     2
 40
9.525
 49
6.349999999999999
 74
     0
 49
-3.174999999999999
 74
     0
  0
LTYPE
  5
929
330
5
100
AcDbSymbolTableRecord
100
AcDbLinetypeTableRecord
  2
PHANTOM2
 70
     0
  3
Phantom (.5x) ___ _ _ ___ _ _ ___ _ _ ___ _ _
 72
    65
 73
     6
 40
31.75
 49
15.875
 74
     0
 49
-3.174999999999999
 74
     0
 49
3.174999999999999
 74
     0
 49
-3.174999999999999
 74
     0
 49
3.174999999999999
 74
     0
 49
-3.174999999999999
 74
     0
  0
LTYPE
  5
92A
330
5
100
AcDbSymbolTableRecord
100
AcDbLinetypeTableRecord
  2
CENTER
 70
     0
  3
Mitte ____ _ ____ _ ____ _ ____ _ ____ _ ____
 72
    65
 73
     4
 40
50.8
 49
31.75
 74
     0
 49
-6.349999999999999
 74
     0
 49
6.349999999999999
 74
     0
 49
-6.349999999999999
 74
     0
  0
LTYPE
  5
993
330
5
100
AcDbSymbolTableRecord
100
AcDbLinetypeTableRecord
  2
ASULTYPE
 70
     0
  3
Ausgezogene Linie
 72
    65
 73
     2
 40
3.0
 49
2.5
 74
     0
 49
0.5
 74
     0
  0
LTYPE
  5
994
330
5
100
AcDbSymbolTableRecord
100
AcDbLinetypeTableRecord
  2
ASVLTYPE
 70
     0
  3
__ __ __ __ __ __ __ __ __ __ __ __ __ __ __ __ __ __ __ __ __
 72
    65
 73
     2
 40
0.75
 49
0.5
 74
     0
 49
-0.25
 74
     0
  0
LTYPE
  5
9DA
330
5
100
AcDbSymbolTableRecord
100
AcDbLinetypeTableRecord
  2
AM_ISO02W050
 70
     0
  3
__ __ __ __ __ __ __ __ __ __ __ __ __ __ __
 72
    65
 73
     2
 40
7.5
 49
6.0
 74
     0
 49
-1.5
 74
     0
  0
LTYPE
  5
9DB
330
5
100
AcDbSymbolTableRecord
100
AcDbLinetypeTableRecord
  2
AM_ISO08W050
 70
     0
  3
____ . ____ . ____ . ____ . ____ . ____ . ____
 72
    65
 73
     4
 40
18.0
 49
12.0
 74
     0
 49
-1.5
 74
     0
 49
3.0
 74
     0
 49
-1.5
 74
     0
  0
LTYPE
  5
9DC
330
5
100
AcDbSymbolTableRecord
100
AcDbLinetypeTableRecord
  2
AM_ISO09W050
 70
     0
  3
_____ . . _____ . . _____ . . ____ .. ____
 72
    65
 73
     6
 40
22.5
 49
12.0
 74
     0
 49
-1.5
 74
     0
 49
3.0
 74
     0
 49
-1.5
 74
     0
 49
3.0
 74
     0
 49
-1.5
 74
     0
  0
LTYPE
  5
9DD
330
5
100
AcDbSymbolTableRecord
100
AcDbLinetypeTableRecord
  2
Amconstr
 70
     0
  3
_______________________
 72
    65
 73
     2
 40
9999.0
 49
9999.0
 74
     0
 49
0.0
 74
     0
  0
LTYPE
  5
9DE
330
5
100
AcDbSymbolTableRecord
100
AcDbLinetypeTableRecord
  2
AM_ISO08W050x2
 70
     0
  3
__ . __ . __ . __ . __ . __
 72
    65
 73
     4
 40
9.0
 49
6.0
 74
     0
 49
-0.75
 74
     0
 49
1.5
 74
     0
 49
-0.75
 74
     0
  0
LTYPE
  5
9DF
330
5
100
AcDbSymbolTableRecord
100
AcDbLinetypeTableRecord
  2
AM_ISO02W050x2
 70
     0
  3
 _ _ _ _ _ _ _ _ _ _ _ _
 72
    65
 73
     2
 40
3.75
 49
3.0
 74
     0
 49
-0.75
 74
     0
  0
LTYPE
  5
9E2
330
5
100
AcDbSymbolTableRecord
100
AcDbLinetypeTableRecord
  2
Amzigzag
 70
     0
  3
/\/-/\/-/\/-/\/-/\/-/\/
 72
    65
 73
     2
 40
11.0001
 49
0.0001
 74
     4
 75
   135
340
9E1
 46
0.04
 50
0.0
 44
0.0
 45
0.0
 49
-11.0
 74
     0
  0
LTYPE
  5
9E3
330
5
100
AcDbSymbolTableRecord
100
AcDbLinetypeTableRecord
  2
AM_DIN_F_W050
 70
     0
  3
__ __ __ __ __ __ __ __ __ __ __ __ __ __ __
 72
    65
 73
     2
 40
6.25
 49
4.75
 74
     0
 49
-1.5
 74
     0
  0
LTYPE
  5
9E4
330
5
100
AcDbSymbolTableRecord
100
AcDbLinetypeTableRecord
  2
AM_DIN_G_W050
 70
     0
  3
____ . ____ . ____ . ____ . ____ . ____ . ____
 72
    65
 73
     4
 40
13.75
 49
9.75
 74
     0
 49
-1.5
 74
     0
 49
1.0
 74
     0
 49
-1.5
 74
     0
  0
LTYPE
  5
9E5
330
5
100
AcDbSymbolTableRecord
100
AcDbLinetypeTableRecord
  2
AM_DIN_K_W050
 70
     0
  3
_____ . . _____ . . _____ . . ____ .. ____
 72
    65
 73
     6
 40
16.25
 49
9.75
 74
     0
 49
-1.5
 74
     0
 49
1.0
 74
     0
 49
-1.5
 74
     0
 49
1.0
 74
     0
 49
-1.5
 74
     0
  0
LTYPE
  5
9E6
330
5
100
AcDbSymbolTableRecord
100
AcDbLinetypeTableRecord
  2
AM_DIN_G_W050x2
 70
     0
  3
__ . __ . __ . __ . __ . __
 72
    65
 73
     4
 40
6.875
 49
4.75
 74
     0
 49
-0.875
 74
     0
 49
0.375
 74
     0
 49
-0.875
 74
     0
  0
LTYPE
  5
9E7
330
5
100
AcDbSymbolTableRecord
100
AcDbLinetypeTableRecord
  2
AM_DIN_F_W050x2
 70
     0
  3
 _ _ _ _ _ _ _ _ _ _ _ _
 72
    65
 73
     2
 40
3.125
 49
2.25
 74
     0
 49
-0.875
 74
     0
  0
LTYPE
  5
9F6
330
5
100
AcDbSymbolTableRecord
100
AcDbLinetypeTableRecord
  2
ACDINWELD
 70
     0
  3
_ _ _ _ _
 72
    65
 73
     2
 40
2.0
 49
2.0
 74
     0
 49
-1.0
 74
     0
  0
LTYPE
  5
9F7
330
5
100
AcDbSymbolTableRecord
100
AcDbLinetypeTableRecord
  2
ACDINTGB
 70
     0
  3
__ . . __ . .
 72
    65
 73
     6
 40
9.0
 49
4.0
 74
     0
 49
-1.0
 74
     0
 49
1.0
 74
     0
 49
-1.0
 74
     0
 49
1.0
 74
     0
 49
-1.0
 74
     0
  0
LTYPE
  5
9F8
330
5
100
AcDbSymbolTableRecord
100
AcDbLinetypeTableRecord
  2
ACDINTGL
 70
     0
  3
_ _ _ _ _
 72
    65
 73
     2
 40
3.0
 49
2.0
 74
     0
 49
-1.0
 74
     0
  0
ENDTAB
  0
TABLE
  2
LAYER
  5
2
330
0
100
AcDbSymbolTable
 70
    16
  0
LAYER
  5
10
330
2
100
AcDbSymbolTableRecord
100
AcDbLayerTableRecord
  2
0
 70
     0
 62
     7
  6
Continuous
370
    -3
390
F
  0
LAYER
  5
128
330
2
100
AcDbSymbolTableRecord
100
AcDbLayerTableRecord
  2
ACHSEN
 70
     0
 62
     1
  6
ACAD_ISO10W100
370
    -3
390
F
  0
LAYER
  5
129
330
2
100
AcDbSymbolTableRecord
100
AcDbLayerTableRecord
  2
HILFSLINIEN
 70
     0
 62
     3
  6
Continuous
370
    -3
390
F
  0
LAYER
  5
12A
330
2
100
AcDbSymbolTableRecord
100
AcDbLayerTableRecord
  2
DEFPOINTS
 70
     0
 62
     7
  6
Continuous
290
     0
370
    -3
390
F
  0
LAYER
  5
12B
330
2
100
AcDbSymbolTableRecord
100
AcDbLayerTableRecord
  2
MAßE
 70
     0
 62
     5
  6
Continuous
370
    -3
390
F
  0
LAYER
  5
12C
330
2
100
AcDbSymbolTableRecord
100
AcDbLayerTableRecord
  2
UNSICHTBAR
 70
     0
 62
     7
  6
ACAD_ISO02W100
370
    -3
390
F
  0
LAYER
  5
678
330
2
100
AcDbSymbolTableRecord
100
AcDbLayerTableRecord
  2
linien
 70
     0
 62
     7
  6
Continuous
370
    -3
390
F
  0
LAYER
  5
108C
330
2
100
AcDbSymbolTableRecord
100
AcDbLayerTableRecord
  2
BEMAßUNG
 70
     0
 62
     5
  6
Continuous
370
    -3
390
F
  0
LAYER
  5
108D
330
2
100
AcDbSymbolTableRecord
100
AcDbLayerTableRecord
  2
Unsichtbare
 70
     0
 62
     7
  6
ACAD_ISO02W100
370
    -3
390
F
  0
LAYER
  5
1778
330
2
100
AcDbSymbolTableRecord
100
AcDbLayerTableRecord
  2
Fläche-1
 70
     0
 62
    83
  6
Continuous
370
    -3
390
F
  0
LAYER
  5
1779
330
2
100
AcDbSymbolTableRecord
100
AcDbLayerTableRecord
  2
Fläche-2
 70
     0
 62
   160
  6
Continuous
370
    -3
390
F
  0
LAYER
  5
177A
330
2
100
AcDbSymbolTableRecord
100
AcDbLayerTableRecord
  2
Fläche-3
 70
     0
 62
    41
  6
Continuous
370
    -3
390
F
  0
LAYER
  5
185A
330
2
100
AcDbSymbolTableRecord
100
AcDbLayerTableRecord
  2
Fläche-4
 70
     0
 62
    51
  6
Continuous
370
    -3
390
F
  0
LAYER
  5
18F1
330
2
100
AcDbSymbolTableRecord
100
AcDbLayerTableRecord
  2
Fläche-5
 70
     0
 62
   255
  6
Continuous
370
    -3
390
F
  0
LAYER
  5
1957
330
2
100
AcDbSymbolTableRecord
100
AcDbLayerTableRecord
  2
Fläche-6
 70
     0
 62
   252
  6
Continuous
370
    -3
390
F
  0
LAYER
  5
1A54
330
2
100
AcDbSymbolTableRecord
100
AcDbLayerTableRecord
  2
linie2
 70
     0
 62
     7
  6
Continuous
370
    -3
390
F
  0
ENDTAB
  0
TABLE
  2
STYLE
  5
3
330
0
100
AcDbSymbolTable
 70
     4
  0
STYLE
  5
11
330
3
100
AcDbSymbolTableRecord
100
AcDbTextStyleTableRecord
  2
Standard
 70
     0
 40
0.0
 41
1.0
 50
0.0
 71
     0
 42
2.5
  3
txt
  4

  0
STYLE
  5
9E1
330
3
100
AcDbSymbolTableRecord
100
AcDbTextStyleTableRecord
  2

 70
     1
 40
0.0
 41
1.0
 50
0.0
 71
     0
 42
2.5
  3
ltypeshp.shx
  4

  0
STYLE
  5
9E8
330
3
100
AcDbSymbolTableRecord
100
AcDbTextStyleTableRecord
  2
ACDINTS
 70
     0
 40
1.0
 41
1.0
 50
0.0
 71
     0
 42
2.5
  3
isocp.shx
  4

  0
STYLE
  5
9F5
330
3
100
AcDbSymbolTableRecord
100
AcDbTextStyleTableRecord
  2
ACDINGDT
 70
     0
 40
0.0
 41
1.0
 50
0.0
 71
     0
 42
2.5
  3
amgdt.shx
  4

  0
ENDTAB
  0
TABLE
  2
VIEW
  5
6
330
0
100
AcDbSymbolTable
 70
     0
  0
ENDTAB
  0
TABLE
  2
UCS
  5
7
330
0
100
AcDbSymbolTable
 70
     0
  0
ENDTAB
  0
TABLE
  2
APPID
  5
9
330
0
100
AcDbSymbolTable
 70
    16
  0
APPID
  5
12
330
9
100
AcDbSymbolTableRecord
100
AcDbRegAppTableRecord
  2
ACAD
 70
     0
  0
APPID
  5
90A
330
9
100
AcDbSymbolTableRecord
100
AcDbRegAppTableRecord
  2
MCAD_NO_VIS
 70
     0
  0
APPID
  5
90B
330
9
100
AcDbSymbolTableRecord
100
AcDbRegAppTableRecord
  2
ACAD_TEMP_GRAPHIC
 70
     0
  0
APPID
  5
93F
330
9
100
AcDbSymbolTableRecord
100
AcDbRegAppTableRecord
  2
AD_DRAW
 70
     0
  0
APPID
  5
942
330
9
100
AcDbSymbolTableRecord
100
AcDbRegAppTableRecord
  2
ACATTRIBSERVICES
 70
     0
  0
APPID
  5
94A
330
9
100
AcDbSymbolTableRecord
100
AcDbRegAppTableRecord
  2
GENIUS_GENDIM_13
 70
     0
  0
APPID
  5
94B
330
9
100
AcDbSymbolTableRecord
100
AcDbRegAppTableRecord
  2
GENIUS_GENDTOL_13
 70
     0
  0
APPID
  5
94C
330
9
100
AcDbSymbolTableRecord
100
AcDbRegAppTableRecord
  2
GENIUS_GE3DTOL_13
 70
     0
  0
APPID
  5
995
330
9
100
AcDbSymbolTableRecord
100
AcDbRegAppTableRecord
  2
ASURF_PCURVE_APPNAME
 70
     0
  0
APPID
  5
99A
330
9
100
AcDbSymbolTableRecord
100
AcDbRegAppTableRecord
  2
AMG_3D2D_5.0
 70
     0
  0
APPID
  5
9C9
330
9
100
AcDbSymbolTableRecord
100
AcDbRegAppTableRecord
  2
DESIGNERASSEMBLIES
 70
     0
  0
APPID
  5
9CF
330
9
100
AcDbSymbolTableRecord
100
AcDbRegAppTableRecord
  2
ACADM_DIM_EDIT
 70
     0
  0
APPID
  5
9D0
330
9
100
AcDbSymbolTableRecord
100
AcDbRegAppTableRecord
  2
AMDT_DM_ADJ
 70
     0
  0
APPID
  5
A0D
330
9
100
AcDbSymbolTableRecord
100
AcDbRegAppTableRecord
  2
GENIUS_GENSCREG_15
 70
     0
  0
APPID
  5
A0E
330
9
100
AcDbSymbolTableRecord
100
AcDbRegAppTableRecord
  2
GENIUS_GENODEF_13
 70
     0
  0
APPID
  5
A0F
330
9
100
AcDbSymbolTableRecord
100
AcDbRegAppTableRecord
  2
GENIUS_GENOBJ-N-SDF_13
 70
     0
  0
ENDTAB
  0
TABLE
  2
DIMSTYLE
  5
A
330
0
100
AcDbSymbolTable
 70
     9
100
AcDbDimStyleTable
 71
     1
340
27
  0
DIMSTYLE
105
27
102
{ACAD_REACTORS
330
156F
330
157C
330
1589
330
1596
330
15A8
330
15B5
330
15C7
330
15D4
330
15F5
330
1616
330
165A
330
1669
330
1681
330
16A2
330
16AF
330
16BC
102
}
330
A
100
AcDbSymbolTableRecord
100
AcDbDimStyleTableRecord
  2
ISO-25
 70
     0
 41
2.5
 42
0.625
 43
3.75
 44
1.25
 73
     0
 74
     0
 77
     1
 78
     8
140
2.5
141
2.5
143
0.03937007874016
147
0.625
171
     3
172
     1
271
     2
272
     2
274
     3
278
    44
283
     0
284
     8
340
11
  0
DIMSTYLE
105
12D
330
A
100
AcDbSymbolTableRecord
100
AcDbDimStyleTableRecord
  2
STANDARD
 70
     0
340
11
  0
DIMSTYLE
105
A00
330
A
100
AcDbSymbolTableRecord
100
AcDbDimStyleTableRecord
  2
AM_DIN
 70
     0
  4
"
 41
2.5
 42
1.0
 43
10.0
 44
1.0
 47
0.1
 48
0.1
 73
     0
 74
     0
 77
     1
 78
     8
 79
     2
140
3.5
141
0.0
143
0.0393701
146
0.71
147
1.5
172
     1
176
   256
177
   256
178
     2
271
     2
272
     3
274
     4
283
     0
284
     8
340
11
371
    -1
372
    -1
  0
DIMSTYLE
105
A01
330
A
100
AcDbSymbolTableRecord
100
AcDbDimStyleTableRecord
  2
AM_DIN$3
 70
     0
  4
"
 41
2.5
 42
1.0
 43
10.0
 44
1.0
 47
0.1
 48
0.1
 73
     0
 77
     1
 78
     8
 79
     2
140
3.5
141
0.0
143
0.0393701
146
0.71
147
1.5
176
   256
177
   256
178
     2
271
     2
272
     3
274
     4
283
     0
284
     8
288
     1
289
     0
340
11
371
    -1
372
    -1
  0
DIMSTYLE
105
A02
330
A
100
AcDbSymbolTableRecord
100
AcDbDimStyleTableRecord
  2
AM_DIN$4
 70
     0
  4
"
 41
2.5
 42
1.0
 43
10.0
 44
1.0
 47
0.1
 48
0.1
 73
     0
 77
     1
 78
     8
 79
     2
140
3.5
141
0.0
143
0.0393701
146
0.71
147
1.5
176
   256
177
   256
178
     2
271
     2
272
     3
274
     4
283
     0
284
     8
288
     1
289
     0
340
11
371
    -1
372
    -1
  0
DIMSTYLE
105
A03
330
A
100
AcDbSymbolTableRecord
100
AcDbDimStyleTableRecord
  2
AM_DIN$6
 70
     0
  4
"
 41
2.5
 42
1.0
 43
10.0
 44
1.0
 47
0.1
 48
0.1
 73
     0
 74
     0
 78
     8
 79
     2
140
3.5
141
0.0
143
0.0393701
146
0.71
147
1.5
172
     1
176
   256
177
   256
178
     2
271
     2
272
     3
274
     4
283
     0
284
     8
340
11
371
    -1
372
    -1
  0
DIMSTYLE
105
A04
330
A
100
AcDbSymbolTableRecord
100
AcDbDimStyleTableRecord
  2
AM_DIN$7
 70
     0
  4
"
 41
2.5
 42
1.0
 43
10.0
 44
1.0
 47
0.1
 48
0.1
 73
     0
 74
     0
 77
     1
 78
     8
 79
     2
140
5.0
141
0.0
143
0.0393701
146
0.71
147
1.5
172
     1
176
   256
177
   256
178
     2
271
     2
272
     3
274
     4
283
     0
284
     8
340
11
371
    -1
372
    -1
  0
DIMSTYLE
105
A05
330
A
100
AcDbSymbolTableRecord
100
AcDbDimStyleTableRecord
  2
AM_DIN$SF
 70
     0
  4
"
 41
2.5
 42
1.0
 43
10.0
 44
1.0
 47
0.1
 48
0.1
 73
     0
 74
     0
 75
     1
 76
     1
 77
     1
 78
     8
 79
     2
140
3.5
141
0.0
143
0.0393701
146
0.71
147
1.5
172
     1
176
   256
177
   256
178
     2
271
     2
272
     3
274
     4
283
     0
284
     8
340
11
371
    -1
372
    -1
  0
DIMSTYLE
105
A0A
330
A
100
AcDbSymbolTableRecord
100
AcDbDimStyleTableRecord
  2
AM_DIN$SH
 70
     0
  4
"
 41
2.5
 42
1.0
 43
10.0
 44
1.0
 47
0.1
 48
0.1
 73
     0
 74
     0
 75
     1
 76
     1
 77
     1
 78
     8
 79
     2
140
3.5
141
0.0
143
0.0393701
144
2.0
146
0.71
147
1.5
172
     1
173
     1
176
   256
177
   256
178
     2
271
     2
272
     3
274
     4
283
     0
284
     8
340
11
343
A06
371
    -1
372
    -1
  0
ENDTAB
  0
TABLE
  2
BLOCK_RECORD
  5
1
330
0
100
AcDbSymbolTable
 70
    19
  0
BLOCK_RECORD
  5
1F
102
{ACAD_XDICTIONARY
360
A11
102
}
330
1
100
AcDbSymbolTableRecord
100
AcDbBlockTableRecord
  2
*Model_Space
340
22
  0
BLOCK_RECORD
  5
1B
330
1
100
AcDbSymbolTableRecord
100
AcDbBlockTableRecord
  2
*Paper_Space
340
1E
  0
BLOCK_RECORD
  5
23
330
1
100
AcDbSymbolTableRecord
100
AcDbBlockTableRecord
  2
*Paper_Space0
340
26
  0
BLOCK_RECORD
  5
A06
330
1
100
AcDbSymbolTableRecord
100
AcDbBlockTableRecord
  2
GENAXEH
340
0
  0
BLOCK_RECORD
  5
1570
330
1
100
AcDbSymbolTableRecord
100
AcDbBlockTableRecord
  2
*D2
340
0
  0
BLOCK_RECORD
  5
157D
330
1
100
AcDbSymbolTableRecord
100
AcDbBlockTableRecord
  2
*D3
340
0
  0
BLOCK_RECORD
  5
158A
330
1
100
AcDbSymbolTableRecord
100
AcDbBlockTableRecord
  2
*D4
340
0
  0
BLOCK_RECORD
  5
1597
330
1
100
AcDbSymbolTableRecord
100
AcDbBlockTableRecord
  2
*D5
340
0
  0
BLOCK_RECORD
  5
15A9
330
1
100
AcDbSymbolTableRecord
100
AcDbBlockTableRecord
  2
*D6
340
0
  0
BLOCK_RECORD
  5
15B6
330
1
100
AcDbSymbolTableRecord
100
AcDbBlockTableRecord
  2
*D7
340
0
  0
BLOCK_RECORD
  5
15C8
330
1
100
AcDbSymbolTableRecord
100
AcDbBlockTableRecord
  2
*D8
340
0
  0
BLOCK_RECORD
  5
15D5
330
1
100
AcDbSymbolTableRecord
100
AcDbBlockTableRecord
  2
*D9
340
0
  0
BLOCK_RECORD
  5
15F6
330
1
100
AcDbSymbolTableRecord
100
AcDbBlockTableRecord
  2
*D10
340
0
  0
BLOCK_RECORD
  5
1617
330
1
100
AcDbSymbolTableRecord
100
AcDbBlockTableRecord
  2
*D11
340
0
  0
BLOCK_RECORD
  5
165B
330
1
100
AcDbSymbolTableRecord
100
AcDbBlockTableRecord
  2
*D12
340
0
  0
BLOCK_RECORD
  5
166A
330
1
100
AcDbSymbolTableRecord
100
AcDbBlockTableRecord
  2
*D13
340
0
  0
BLOCK_RECORD
  5
1682
330
1
100
AcDbSymbolTableRecord
100
AcDbBlockTableRecord
  2
*D14
340
0
  0
BLOCK_RECORD
  5
16A3
330
1
100
AcDbSymbolTableRecord
100
AcDbBlockTableRecord
  2
*D15
340
0
  0
BLOCK_RECORD
  5
16B0
330
1
100
AcDbSymbolTableRecord
100
AcDbBlockTableRecord
  2
*D16
340
0
  0
BLOCK_RECORD
  5
16BD
330
1
100
AcDbSymbolTableRecord
100
AcDbBlockTableRecord
  2
*D17
340
0
  0
ENDTAB
  0
ENDSEC
  0
SECTION
  2
BLOCKS
  0
BLOCK
  5
20
330
1F
100
AcDbEntity
  8
0
100
AcDbBlockBegin
  2
*Model_Space
 70
     0
 10
0.0
 20
0.0
 30
0.0
  3
*Model_Space
  1

  0
ENDBLK
  5
21
330
1F
100
AcDbEntity
  8
0
100
AcDbBlockEnd
  0
BLOCK
  5
1C
330
1B
100
AcDbEntity
 67
     1
  8
0
100
AcDbBlockBegin
  2
*Paper_Space
 70
     0
 10
0.0
 20
0.0
 30
0.0
  3
*Paper_Space
  1

  0
ENDBLK
  5
1D
330
1B
100
AcDbEntity
 67
     1
  8
0
100
AcDbBlockEnd
  0
BLOCK
  5
24
330
23
100
AcDbEntity
  8
0
100
AcDbBlockBegin
  2
*Paper_Space0
 70
     0
 10
0.0
 20
0.0
 30
0.0
  3
*Paper_Space0
  1

  0
VIEWPORT
  5
8F1
102
{ACAD_XDICTIONARY
360
1D2A
102
}
330
23
100
AcDbEntity
  8
0
100
AcDbViewport
 10
169.3878912657788
 20
101.4943014598865
 30
0.0
 40
531.942709589805
 41
342.9800925579035
 69
     0
 12
169.3878912657788
 22
101.4943014598865
 13
0.0
 23
0.0
 14
10.0
 24
10.0
 15
10.0
 25
10.0
 16
0.0
 26
0.0
 36
1.0
 17
0.0
 27
0.0
 37
0.0
 42
50.0
 43
0.0
 44
0.0
 45
342.9800925579035
 50
0.0
 51
0.0
 72
   100
 90
    32800
  1

281
     0
 71
     0
 74
     0
110
0.0
120
0.0
130
0.0
111
1.0
121
0.0
131
0.0
112
0.0
122
1.0
132
0.0
 79
     0
146
0.0
1001
GENIUS_GENOBJ-N-SDF_13
1002
{
1000
OWNER
1000
GEN
1002
}
1001
GENIUS_GENODEF_13
1002
{
1000
HIER
1070
     0
1002
}
1002
{
1000
MANEDIT
1070
     0
1002
}
1002
{
1000
NOSEL
1070
     0
1002
}
1002
{
1000
BEHIND
1070
     0
1002
}
1002
{
1000
OTHER
1070
     0
1002
}
1002
{
1000
REACTOR
1002
}
1001
GENIUS_GENSCREG_15
1000
PF
1040
1.0
1000
DF
1040
1.0
1000
MIN
1011
-96.58346352912372
1021
-69.99574481906524
1031
0.0
1000
MAX
1011
435.3592460606813
1021
272.9843477388383
1031
0.0
1000
FLAGS
1070
     2
  0
VIEWPORT
  5
8F3
102
{ACAD_XDICTIONARY
360
1D2C
102
}
330
23
100
AcDbEntity
  8
MAßE
100
AcDbViewport
 10
145.7126768217045
 20
93.50382976086814
 30
0.0
 40
280.8861143687308
 41
181.919568406783
 69
     0
 12
225.6012870267236
 22
162.3136415996607
 13
0.0
 23
0.0
 14
10.0
 24
10.0
 15
10.0
 25
10.0
 16
0.0
 26
0.0
 36
1.0
 17
0.0
 27
0.0
 37
0.0
 42
50.0
 43
0.0
 44
0.0
 45
129.1327067931612
 50
0.0
 51
0.0
 72
   100
 90
    32864
  1

281
     0
 71
     1
 74
     0
110
0.0
120
0.0
130
0.0
111
1.0
121
0.0
131
0.0
112
0.0
122
1.0
132
0.0
 79
     0
146
0.0
1001
GENIUS_GENOBJ-N-SDF_13
1002
{
1000
OWNER
1000
GEN
1002
}
1001
GENIUS_GENODEF_13
1002
{
1000
HIER
1070
     0
1002
}
1002
{
1000
MANEDIT
1070
     0
1002
}
1002
{
1000
NOSEL
1070
     0
1002
}
1002
{
1000
BEHIND
1070
     0
1002
}
1002
{
1000
OTHER
1070
     0
1002
}
1002
{
1000
REACTOR
1002
}
1001
GENIUS_GENSCREG_15
1000
PF
1040
0.0
1000
DF
1040
0.0
1000
MIN
1011
5.269619637339133
1021
2.544045557476636
1031
0.0
1000
MAX
1011
286.1557340060699
1021
184.4636139642596
1031
0.0
1000
FLAGS
1070
     2
  0
ENDBLK
  5
25
330
23
100
AcDbEntity
  8
0
100
AcDbBlockEnd
  0
BLOCK
  5
A08
330
A06
100
AcDbEntity
  8
0
100
AcDbBlockBegin
  2
GENAXEH
 70
     0
 10
0.0
 20
0.0
 30
0.0
  3
GENAXEH
  1

  0
LINE
  5
A07
330
A06
100
AcDbEntity
  8
0
100
AcDbLine
 10
-1.0
 20
0.0
 30
0.0
 11
1.0
 21
0.0
 31
0.0
  0
ENDBLK
  5
A09
330
A06
100
AcDbEntity
  8
0
100
AcDbBlockEnd
  0
BLOCK
  5
157A
330
1570
100
AcDbEntity
  8
0
100
AcDbBlockBegin
  2
*D2
 70
     1
 10
0.0
 20
0.0
 30
0.0
  3
*D2
  1

  0
LINE
  5
1571
330
1570
100
AcDbEntity
  8
MAßE
 62
     0
370
    -2
100
AcDbLine
 10
162.3935273829481
 20
82.55122770070366
 30
0.0
 11
162.3935273829481
 21
99.7131210020151
 31
0.0
  0
LINE
  5
1572
330
1570
100
AcDbEntity
  8
MAßE
 62
     0
370
    -2
100
AcDbLine
 10
178.393527382948
 20
84.55122770070365
 30
0.0
 11
178.393527382948
 21
99.7131210020151
 31
0.0
  0
LINE
  5
1573
330
1570
100
AcDbEntity
  8
MAßE
 62
     0
370
    -2
100
AcDbLine
 10
164.8935273829481
 20
98.4631210020151
 30
0.0
 11
175.8935273829481
 21
98.4631210020151
 31
0.0
  0
SOLID
  5
1574
330
1570
100
AcDbEntity
  8
MAßE
 62
     0
100
AcDbTrace
 10
164.8935273829481
 20
98.87978766868178
 30
0.0
 11
164.8935273829481
 21
98.04645433534844
 31
0.0
 12
162.3935273829481
 22
98.4631210020151
 32
0.0
 13
162.3935273829481
 23
98.4631210020151
 33
0.0
  0
SOLID
  5
1575
330
1570
100
AcDbEntity
  8
MAßE
 62
     0
100
AcDbTrace
 10
175.8935273829481
 20
98.87978766868178
 30
0.0
 11
175.8935273829481
 21
98.04645433534844
 31
0.0
 12
178.393527382948
 22
98.4631210020151
 32
0.0
 13
178.393527382948
 23
98.4631210020151
 33
0.0
  0
MTEXT
  5
1576
330
1570
100
AcDbEntity
  8
MAßE
 62
     0
100
AcDbMText
 10
170.3935273829481
 20
100.3381210020151
 30
0.0
 40
2.5
 41
0.0
 71
     5
 72
     1
  1
16
 73
     1
 44
1.0
1001
ACAD
1000
MTEXTBEGIN
1070
    73
1070
     1
1070
    44
1040
1.0
1070
    74
1070
     0
1000
MTEXTEND
  0
POINT
  5
1577
330
1570
100
AcDbEntity
  8
DEFPOINTS
 62
     0
100
AcDbPoint
 10
162.3935273829481
 20
81.92622770070366
 30
0.0
  0
POINT
  5
1578
330
1570
100
AcDbEntity
  8
DEFPOINTS
 62
     0
100
AcDbPoint
 10
178.393527382948
 20
83.92622770070365
 30
0.0
  0
POINT
  5
1579
330
1570
100
AcDbEntity
  8
DEFPOINTS
 62
     0
100
AcDbPoint
 10
178.393527382948
 20
98.4631210020151
 30
0.0
  0
ENDBLK
  5
157B
330
1570
100
AcDbEntity
  8
0
100
AcDbBlockEnd
  0
BLOCK
  5
1587
330
157D
100
AcDbEntity
  8
0
100
AcDbBlockBegin
  2
*D3
 70
     1
 10
0.0
 20
0.0
 30
0.0
  3
*D3
  1

  0
LINE
  5
157E
330
157D
100
AcDbEntity
  8
MAßE
 62
     0
370
    -2
100
AcDbLine
 10
178.393527382948
 20
84.55122770070365
 30
0.0
 11
178.393527382948
 21
99.7131210020151
 31
0.0
  0
LINE
  5
157F
330
157D
100
AcDbEntity
  8
MAßE
 62
     0
370
    -2
100
AcDbLine
 10
240.3935271500942
 20
85.55122770070372
 30
0.0
 11
240.3935271500942
 21
99.7131210020151
 31
0.0
  0
LINE
  5
1580
330
157D
100
AcDbEntity
  8
MAßE
 62
     0
370
    -2
100
AcDbLine
 10
180.893527382948
 20
98.4631210020151
 30
0.0
 11
237.8935271500942
 21
98.4631210020151
 31
0.0
  0
SOLID
  5
1581
330
157D
100
AcDbEntity
  8
MAßE
 62
     0
100
AcDbTrace
 10
180.893527382948
 20
98.87978766868178
 30
0.0
 11
180.893527382948
 21
98.04645433534844
 31
0.0
 12
178.393527382948
 22
98.4631210020151
 32
0.0
 13
178.393527382948
 23
98.4631210020151
 33
0.0
  0
SOLID
  5
1582
330
157D
100
AcDbEntity
  8
MAßE
 62
     0
100
AcDbTrace
 10
237.8935271500942
 20
98.87978766868178
 30
0.0
 11
237.8935271500942
 21
98.04645433534844
 31
0.0
 12
240.3935271500942
 22
98.4631210020151
 32
0.0
 13
240.3935271500942
 23
98.4631210020151
 33
0.0
  0
MTEXT
  5
1583
330
157D
100
AcDbEntity
  8
MAßE
 62
     0
100
AcDbMText
 10
209.3935272665211
 20
100.3381210020151
 30
0.0
 40
2.5
 41
0.0
 71
     5
 72
     1
  1
62
 73
     1
 44
1.0
1001
ACAD
1000
MTEXTBEGIN
1070
    73
1070
     1
1070
    44
1040
1.0
1070
    74
1070
     0
1000
MTEXTEND
  0
POINT
  5
1584
330
157D
100
AcDbEntity
  8
DEFPOINTS
 62
     0
100
AcDbPoint
 10
178.393527382948
 20
83.92622770070365
 30
0.0
  0
POINT
  5
1585
330
157D
100
AcDbEntity
  8
DEFPOINTS
 62
     0
100
AcDbPoint
 10
240.3935271500942
 20
84.92622770070372
 30
0.0
  0
POINT
  5
1586
330
157D
100
AcDbEntity
  8
DEFPOINTS
 62
     0
100
AcDbPoint
 10
240.3935271500942
 20
98.4631210020151
 30
0.0
  0
ENDBLK
  5
1588
330
157D
100
AcDbEntity
  8
0
100
AcDbBlockEnd
  0
BLOCK
  5
1594
330
158A
100
AcDbEntity
  8
0
100
AcDbBlockBegin
  2
*D4
 70
     1
 10
0.0
 20
0.0
 30
0.0
  3
*D4
  1

  0
LINE
  5
158B
330
158A
100
AcDbEntity
  8
MAßE
 62
     0
370
    -2
100
AcDbLine
 10
240.3935271500942
 20
85.55122770070372
 30
0.0
 11
240.3935271500942
 21
99.7131210020151
 31
0.0
  0
LINE
  5
158C
330
158A
100
AcDbEntity
  8
MAßE
 62
     0
370
    -2
100
AcDbLine
 10
261.8935271500943
 20
90.55122770070374
 30
0.0
 11
261.8935271500943
 21
99.7131210020151
 31
0.0
  0
LINE
  5
158D
330
158A
100
AcDbEntity
  8
MAßE
 62
     0
370
    -2
100
AcDbLine
 10
242.8935271500942
 20
98.4631210020151
 30
0.0
 11
259.3935271500943
 21
98.4631210020151
 31
0.0
  0
SOLID
  5
158E
330
158A
100
AcDbEntity
  8
MAßE
 62
     0
100
AcDbTrace
 10
242.8935271500942
 20
98.87978766868178
 30
0.0
 11
242.8935271500942
 21
98.04645433534844
 31
0.0
 12
240.3935271500942
 22
98.4631210020151
 32
0.0
 13
240.3935271500942
 23
98.4631210020151
 33
0.0
  0
SOLID
  5
158F
330
158A
100
AcDbEntity
  8
MAßE
 62
     0
100
AcDbTrace
 10
259.3935271500943
 20
98.87978766868178
 30
0.0
 11
259.3935271500943
 21
98.04645433534844
 31
0.0
 12
261.8935271500943
 22
98.4631210020151
 32
0.0
 13
261.8935271500943
 23
98.4631210020151
 33
0.0
  0
MTEXT
  5
1590
330
158A
100
AcDbEntity
  8
MAßE
 62
     0
100
AcDbMText
 10
251.1435271500943
 20
100.5464543353484
 30
0.0
 40
2.5
 41
0.0
 71
     5
 72
     1
  1
21,5
 73
     1
 44
1.0
1001
ACAD
1000
MTEXTBEGIN
1070
    73
1070
     1
1070
    44
1040
1.0
1070
    74
1070
     0
1000
MTEXTEND
  0
POINT
  5
1591
330
158A
100
AcDbEntity
  8
DEFPOINTS
 62
     0
100
AcDbPoint
 10
240.3935271500942
 20
84.92622770070372
 30
0.0
  0
POINT
  5
1592
330
158A
100
AcDbEntity
  8
DEFPOINTS
 62
     0
100
AcDbPoint
 10
261.8935271500943
 20
89.92622770070374
 30
0.0
  0
POINT
  5
1593
330
158A
100
AcDbEntity
  8
DEFPOINTS
 62
     0
100
AcDbPoint
 10
261.8935271500943
 20
98.4631210020151
 30
0.0
  0
ENDBLK
  5
1595
330
158A
100
AcDbEntity
  8
0
100
AcDbBlockEnd
  0
BLOCK
  5
15A6
330
1597
100
AcDbEntity
  8
0
100
AcDbBlockBegin
  2
*D5
 70
     1
 10
0.0
 20
0.0
 30
0.0
  3
*D5
  1

  0
LINE
  5
1598
330
1597
100
AcDbEntity
  8
MAßE
 62
     0
370
    -2
100
AcDbLine
 10
261.8935271500943
 20
90.55122770070374
 30
0.0
 11
261.8935271500943
 21
99.7131210020151
 31
0.0
  0
LINE
  5
1599
330
1597
100
AcDbEntity
  8
MAßE
 62
     0
370
    -2
100
AcDbLine
 10
263.3935271500943
 20
90.55122770070376
 30
0.0
 11
263.3935271500943
 21
99.7131210020151
 31
0.0
  0
LINE
  5
159A
330
1597
100
AcDbEntity
  8
MAßE
 62
     0
370
    -2
100
AcDbLine
 10
259.3935271500943
 20
98.4631210020151
 30
0.0
 11
256.8935271500943
 21
98.4631210020151
 31
0.0
  0
LINE
  5
159B
330
1597
100
AcDbEntity
  8
MAßE
 62
     0
370
    -2
100
AcDbLine
 10
265.8935271500943
 20
98.4631210020151
 30
0.0
 11
268.3935271500943
 21
98.4631210020151
 31
0.0
  0
LINE
  5
159C
330
1597
100
AcDbEntity
  8
MAßE
 62
     0
370
    -2
100
AcDbLine
 10
262.6435271500942
 20
98.4631210020151
 30
0.0
 11
263.7372771500943
 21
102.1089543353484
 31
0.0
  0
LINE
  5
159D
330
1597
100
AcDbEntity
  8
MAßE
 62
     0
370
    -2
100
AcDbLine
 10
263.7372771500943
 20
102.1089543353484
 30
0.0
 11
269.5706104834276
 21
102.1089543353484
 31
0.0
  0
MTEXT
  5
159E
330
1597
100
AcDbEntity
  8
MAßE
 62
     0
100
AcDbMText
 10
266.6539438167609
 20
104.1922876686817
 30
0.0
 40
2.5
 41
0.0
 71
     5
 72
     1
  1
1,5
 73
     1
 44
1.0
1001
ACAD
1000
MTEXTBEGIN
1070
    73
1070
     1
1070
    44
1040
1.0
1070
    74
1070
     0
1000
MTEXTEND
  0
LINE
  5
159F
330
1597
100
AcDbEntity
  8
MAßE
 62
     0
370
    -2
100
AcDbLine
 10
261.8935271500943
 20
98.4631210020151
 30
0.0
 11
263.3935271500943
 21
98.4631210020151
 31
0.0
  0
LINE
  5
15A0
330
1597
100
AcDbEntity
  8
MAßE
 62
     0
370
    -2
100
AcDbLine
 10
261.8935271500943
 20
98.4631210020151
 30
0.0
 11
263.3935271500943
 21
98.4631210020151
 31
0.0
  0
SOLID
  5
15A1
330
1597
100
AcDbEntity
  8
MAßE
 62
     0
100
AcDbTrace
 10
259.3935271500943
 20
98.87978766868178
 30
0.0
 11
259.3935271500943
 21
98.04645433534844
 31
0.0
 12
261.8935271500943
 22
98.4631210020151
 32
0.0
 13
261.8935271500943
 23
98.4631210020151
 33
0.0
  0
SOLID
  5
15A2
330
1597
100
AcDbEntity
  8
MAßE
 62
     0
100
AcDbTrace
 10
265.8935271500943
 20
98.87978766868178
 30
0.0
 11
265.8935271500943
 21
98.04645433534844
 31
0.0
 12
263.3935271500943
 22
98.4631210020151
 32
0.0
 13
263.3935271500943
 23
98.4631210020151
 33
0.0
  0
POINT
  5
15A3
330
1597
100
AcDbEntity
  8
DEFPOINTS
 62
     0
100
AcDbPoint
 10
261.8935271500943
 20
89.92622770070374
 30
0.0
  0
POINT
  5
15A4
330
1597
100
AcDbEntity
  8
DEFPOINTS
 62
     0
100
AcDbPoint
 10
263.3935271500943
 20
89.92622770070376
 30
0.0
  0
POINT
  5
15A5
330
1597
100
AcDbEntity
  8
DEFPOINTS
 62
     0
100
AcDbPoint
 10
263.3935271500943
 20
98.4631210020151
 30
0.0
  0
ENDBLK
  5
15A7
330
1597
100
AcDbEntity
  8
0
100
AcDbBlockEnd
  0
BLOCK
  5
15B3
330
15A9
100
AcDbEntity
  8
0
100
AcDbBlockBegin
  2
*D6
 70
     1
 10
0.0
 20
0.0
 30
0.0
  3
*D6
  1

  0
LINE
  5
15AA
330
15A9
100
AcDbEntity
  8
MAßE
 62
     0
370
    -2
100
AcDbLine
 10
263.3935271500943
 20
90.55122770070376
 30
0.0
 11
263.3935271500943
 21
99.7131210020151
 31
0.0
  0
LINE
  5
15AB
330
15A9
100
AcDbEntity
  8
MAßE
 62
     0
370
    -2
100
AcDbLine
 10
274.3935271500943
 20
90.55122770070378
 30
0.0
 11
274.3935271500943
 21
99.7131210020151
 31
0.0
  0
LINE
  5
15AC
330
15A9
100
AcDbEntity
  8
MAßE
 62
     0
370
    -2
100
AcDbLine
 10
265.8935271500943
 20
98.4631210020151
 30
0.0
 11
271.8935271500943
 21
98.4631210020151
 31
0.0
  0
SOLID
  5
15AD
330
15A9
100
AcDbEntity
  8
MAßE
 62
     0
100
AcDbTrace
 10
265.8935271500943
 20
98.87978766868178
 30
0.0
 11
265.8935271500943
 21
98.04645433534844
 31
0.0
 12
263.3935271500943
 22
98.4631210020151
 32
0.0
 13
263.3935271500943
 23
98.4631210020151
 33
0.0
  0
SOLID
  5
15AE
330
15A9
100
AcDbEntity
  8
MAßE
 62
     0
100
AcDbTrace
 10
271.8935271500943
 20
98.87978766868178
 30
0.0
 11
271.8935271500943
 21
98.04645433534844
 31
0.0
 12
274.3935271500943
 22
98.4631210020151
 32
0.0
 13
274.3935271500943
 23
98.4631210020151
 33
0.0
  0
MTEXT
  5
15AF
330
15A9
100
AcDbEntity
  8
MAßE
 62
     0
100
AcDbMText
 10
268.8935271500942
 20
100.3381210020151
 30
0.0
 40
2.5
 41
0.0
 71
     5
 72
     1
  1
11
 73
     1
 44
1.0
1001
ACAD
1000
MTEXTBEGIN
1070
    73
1070
     1
1070
    44
1040
1.0
1070
    74
1070
     0
1000
MTEXTEND
  0
POINT
  5
15B0
330
15A9
100
AcDbEntity
  8
DEFPOINTS
 62
     0
100
AcDbPoint
 10
263.3935271500943
 20
89.92622770070376
 30
0.0
  0
POINT
  5
15B1
330
15A9
100
AcDbEntity
  8
DEFPOINTS
 62
     0
100
AcDbPoint
 10
274.3935271500943
 20
89.92622770070378
 30
0.0
  0
POINT
  5
15B2
330
15A9
100
AcDbEntity
  8
DEFPOINTS
 62
     0
100
AcDbPoint
 10
274.3935271500943
 20
98.4631210020151
 30
0.0
  0
ENDBLK
  5
15B4
330
15A9
100
AcDbEntity
  8
0
100
AcDbBlockEnd
  0
BLOCK
  5
15C5
330
15B6
100
AcDbEntity
  8
0
100
AcDbBlockBegin
  2
*D7
 70
     1
 10
0.0
 20
0.0
 30
0.0
  3
*D7
  1

  0
LINE
  5
15B7
330
15B6
100
AcDbEntity
  8
MAßE
 62
     0
370
    -2
100
AcDbLine
 10
274.3935271500943
 20
90.55122770070378
 30
0.0
 11
274.3935271500943
 21
99.7131210020151
 31
0.0
  0
LINE
  5
15B8
330
15B6
100
AcDbEntity
  8
MAßE
 62
     0
370
    -2
100
AcDbLine
 10
275.8935271500943
 20
91.97132159431316
 30
0.0
 11
275.8935271500943
 21
99.7131210020151
 31
0.0
  0
LINE
  5
15B9
330
15B6
100
AcDbEntity
  8
MAßE
 62
     0
370
    -2
100
AcDbLine
 10
271.8935271500943
 20
98.4631210020151
 30
0.0
 11
269.3935271500943
 21
98.4631210020151
 31
0.0
  0
LINE
  5
15BA
330
15B6
100
AcDbEntity
  8
MAßE
 62
     0
370
    -2
100
AcDbLine
 10
278.3935271500943
 20
98.4631210020151
 30
0.0
 11
280.8935271500942
 21
98.4631210020151
 31
0.0
  0
LINE
  5
15BB
330
15B6
100
AcDbEntity
  8
MAßE
 62
     0
370
    -2
100
AcDbLine
 10
275.1435271500942
 20
98.4631210020151
 30
0.0
 11
276.2372771500943
 21
102.1089543353484
 31
0.0
  0
LINE
  5
15BC
330
15B6
100
AcDbEntity
  8
MAßE
 62
     0
370
    -2
100
AcDbLine
 10
276.2372771500943
 20
102.1089543353484
 30
0.0
 11
282.0706104834276
 21
102.1089543353484
 31
0.0
  0
MTEXT
  5
15BD
330
15B6
100
AcDbEntity
  8
MAßE
 62
     0
100
AcDbMText
 10
279.1539438167609
 20
104.1922876686817
 30
0.0
 40
2.5
 41
0.0
 71
     5
 72
     1
  1
1,5
 73
     1
 44
1.0
1001
ACAD
1000
MTEXTBEGIN
1070
    73
1070
     1
1070
    44
1040
1.0
1070
    74
1070
     0
1000
MTEXTEND
  0
LINE
  5
15BE
330
15B6
100
AcDbEntity
  8
MAßE
 62
     0
370
    -2
100
AcDbLine
 10
274.3935271500943
 20
98.4631210020151
 30
0.0
 11
275.8935271500943
 21
98.4631210020151
 31
0.0
  0
LINE
  5
15BF
330
15B6
100
AcDbEntity
  8
MAßE
 62
     0
370
    -2
100
AcDbLine
 10
274.3935271500943
 20
98.4631210020151
 30
0.0
 11
275.8935271500943
 21
98.4631210020151
 31
0.0
  0
SOLID
  5
15C0
330
15B6
100
AcDbEntity
  8
MAßE
 62
     0
100
AcDbTrace
 10
271.8935271500943
 20
98.87978766868178
 30
0.0
 11
271.8935271500943
 21
98.04645433534844
 31
0.0
 12
274.3935271500943
 22
98.4631210020151
 32
0.0
 13
274.3935271500943
 23
98.4631210020151
 33
0.0
  0
SOLID
  5
15C1
330
15B6
100
AcDbEntity
  8
MAßE
 62
     0
100
AcDbTrace
 10
278.3935271500943
 20
98.87978766868178
 30
0.0
 11
278.3935271500943
 21
98.04645433534844
 31
0.0
 12
275.8935271500943
 22
98.4631210020151
 32
0.0
 13
275.8935271500943
 23
98.4631210020151
 33
0.0
  0
POINT
  5
15C2
330
15B6
100
AcDbEntity
  8
DEFPOINTS
 62
     0
100
AcDbPoint
 10
274.3935271500943
 20
89.92622770070378
 30
0.0
  0
POINT
  5
15C3
330
15B6
100
AcDbEntity
  8
DEFPOINTS
 62
     0
100
AcDbPoint
 10
275.8935271500943
 20
91.34632159431316
 30
0.0
  0
POINT
  5
15C4
330
15B6
100
AcDbEntity
  8
DEFPOINTS
 62
     0
100
AcDbPoint
 10
275.8935271500943
 20
98.4631210020151
 30
0.0
  0
ENDBLK
  5
15C6
330
15B6
100
AcDbEntity
  8
0
100
AcDbBlockEnd
  0
BLOCK
  5
15D2
330
15C8
100
AcDbEntity
  8
0
100
AcDbBlockBegin
  2
*D8
 70
     1
 10
0.0
 20
0.0
 30
0.0
  3
*D8
  1

  0
LINE
  5
15C9
330
15C8
100
AcDbEntity
  8
MAßE
 62
     0
370
    -2
100
AcDbLine
 10
275.8935271500943
 20
91.97132159431316
 30
0.0
 11
275.8935271500943
 21
99.7131210020151
 31
0.0
  0
LINE
  5
15CA
330
15C8
100
AcDbEntity
  8
MAßE
 62
     0
370
    -2
100
AcDbLine
 10
290.8935271500943
 20
84.55122770070369
 30
0.0
 11
290.8935271500943
 21
99.7131210020151
 31
0.0
  0
LINE
  5
15CB
330
15C8
100
AcDbEntity
  8
MAßE
 62
     0
370
    -2
100
AcDbLine
 10
278.3935271500943
 20
98.4631210020151
 30
0.0
 11
288.3935271500943
 21
98.4631210020151
 31
0.0
  0
SOLID
  5
15CC
330
15C8
100
AcDbEntity
  8
MAßE
 62
     0
100
AcDbTrace
 10
278.3935271500943
 20
98.87978766868178
 30
0.0
 11
278.3935271500943
 21
98.04645433534844
 31
0.0
 12
275.8935271500943
 22
98.4631210020151
 32
0.0
 13
275.8935271500943
 23
98.4631210020151
 33
0.0
  0
SOLID
  5
15CD
330
15C8
100
AcDbEntity
  8
MAßE
 62
     0
100
AcDbTrace
 10
288.3935271500943
 20
98.87978766868178
 30
0.0
 11
288.3935271500943
 21
98.04645433534844
 31
0.0
 12
290.8935271500943
 22
98.4631210020151
 32
0.0
 13
290.8935271500943
 23
98.4631210020151
 33
0.0
  0
MTEXT
  5
15CE
330
15C8
100
AcDbEntity
  8
MAßE
 62
     0
100
AcDbMText
 10
283.3935271500942
 20
100.3381210020151
 30
0.0
 40
2.5
 41
0.0
 71
     5
 72
     1
  1
15
 73
     1
 44
1.0
1001
ACAD
1000
MTEXTBEGIN
1070
    73
1070
     1
1070
    44
1040
1.0
1070
    74
1070
     0
1000
MTEXTEND
  0
POINT
  5
15CF
330
15C8
100
AcDbEntity
  8
DEFPOINTS
 62
     0
100
AcDbPoint
 10
275.8935271500943
 20
91.34632159431316
 30
0.0
  0
POINT
  5
15D0
330
15C8
100
AcDbEntity
  8
DEFPOINTS
 62
     0
100
AcDbPoint
 10
290.8935271500943
 20
83.92622770070369
 30
0.0
  0
POINT
  5
15D1
330
15C8
100
AcDbEntity
  8
DEFPOINTS
 62
     0
100
AcDbPoint
 10
290.8935271500943
 20
98.4631210020151
 30
0.0
  0
ENDBLK
  5
15D3
330
15C8
100
AcDbEntity
  8
0
100
AcDbBlockEnd
  0
BLOCK
  5
15DF
330
15D5
100
AcDbEntity
  8
0
100
AcDbBlockBegin
  2
*D9
 70
     1
 10
0.0
 20
0.0
 30
0.0
  3
*D9
  1

  0
LINE
  5
1602
330
15D5
100
AcDbEntity
  8
MAßE
 62
     0
370
    -2
100
AcDbLine
 10
291.5185271500943
 20
83.92622770070369
 30
0.0
 11
298.7182604600978
 21
83.92622770070369
 31
0.0
  0
LINE
  5
1603
330
15D5
100
AcDbEntity
  8
MAßE
 62
     0
370
    -2
100
AcDbLine
 10
291.5185271500943
 20
71.92622770070369
 30
0.0
 11
298.7182604600978
 21
71.92622770070369
 31
0.0
  0
LINE
  5
1604
330
15D5
100
AcDbEntity
  8
MAßE
 62
     0
370
    -2
100
AcDbLine
 10
297.4682604600978
 20
81.42622770070369
 30
0.0
 11
297.4682604600978
 21
74.42622770070369
 31
0.0
  0
LINE
  5
1605
330
15D5
100
AcDbEntity
  8
MAßE
 62
     0
370
    -2
100
AcDbLine
 10
297.4682604600978
 20
71.92622770070369
 30
0.0
 11
297.4682604600978
 21
49.58018961185499
 31
0.0
  0
SOLID
  5
1606
330
15D5
100
AcDbEntity
  8
MAßE
 62
     0
100
AcDbTrace
 10
297.0515937934311
 20
81.42622770070369
 30
0.0
 11
297.8849271267645
 21
81.42622770070369
 31
0.0
 12
297.4682604600978
 22
83.92622770070369
 32
0.0
 13
297.4682604600978
 23
83.92622770070369
 33
0.0
  0
SOLID
  5
1607
330
15D5
100
AcDbEntity
  8
MAßE
 62
     0
100
AcDbTrace
 10
297.0515937934311
 20
74.42622770070369
 30
0.0
 11
297.8849271267645
 21
74.42622770070369
 31
0.0
 12
297.4682604600978
 22
71.92622770070369
 32
0.0
 13
297.4682604600978
 23
71.92622770070369
 33
0.0
  0
MTEXT
  5
1608
330
15D5
100
AcDbEntity
  8
MAßE
 62
     0
100
AcDbMText
 10
295.5932604600978
 20
56.8718562785217
 30
0.0
 40
2.5
 41
0.0
 71
     5
 72
     1
  1
%%c12 k6
 11
0.0000000000000001
 21
1.0
 31
0.0
 73
     1
 44
1.0
1001
ACAD
1000
MTEXTBEGIN
1070
    73
1070
     1
1070
    44
1040
1.0
1070
    74
1070
     0
1000
MTEXTEND
  0
POINT
  5
1609
330
15D5
100
AcDbEntity
  8
DEFPOINTS
 62
     0
100
AcDbPoint
 10
290.8935271500943
 20
83.92622770070369
 30
0.0
  0
POINT
  5
160A
330
15D5
100
AcDbEntity
  8
DEFPOINTS
 62
     0
100
AcDbPoint
 10
290.8935271500943
 20
71.92622770070369
 30
0.0
  0
POINT
  5
160B
330
15D5
100
AcDbEntity
  8
DEFPOINTS
 62
     0
100
AcDbPoint
 10
297.4682604600978
 20
71.92622770070369
 30
0.0
  0
ENDBLK
  5
15E0
330
15D5
100
AcDbEntity
  8
0
100
AcDbBlockEnd
  0
BLOCK
  5
1600
330
15F6
100
AcDbEntity
  8
0
100
AcDbBlockBegin
  2
*D10
 70
     1
 10
0.0
 20
0.0
 30
0.0
  3
*D10
  1

  0
LINE
  5
160D
330
15F6
100
AcDbEntity
  8
MAßE
 62
     0
370
    -2
100
AcDbLine
 10
276.5185271500943
 20
89.92622770070372
 30
0.0
 11
306.5460018602523
 21
89.9262277007037
 31
0.0
  0
LINE
  5
160E
330
15F6
100
AcDbEntity
  8
MAßE
 62
     0
370
    -2
100
AcDbLine
 10
276.5185271500943
 20
65.92622770070363
 30
0.0
 11
306.5460018602523
 21
65.92622770070362
 31
0.0
  0
LINE
  5
160F
330
15F6
100
AcDbEntity
  8
MAßE
 62
     0
370
    -2
100
AcDbLine
 10
305.2960018602523
 20
87.4262277007037
 30
0.0
 11
305.2960018602523
 21
68.42622770070362
 31
0.0
  0
SOLID
  5
1610
330
15F6
100
AcDbEntity
  8
MAßE
 62
     0
100
AcDbTrace
 10
304.8793351935856
 20
87.4262277007037
 30
0.0
 11
305.712668526919
 21
87.4262277007037
 31
0.0
 12
305.2960018602523
 22
89.9262277007037
 32
0.0
 13
305.2960018602523
 23
89.9262277007037
 33
0.0
  0
SOLID
  5
1611
330
15F6
100
AcDbEntity
  8
MAßE
 62
     0
100
AcDbTrace
 10
304.8793351935856
 20
68.42622770070362
 30
0.0
 11
305.712668526919
 21
68.42622770070362
 31
0.0
 12
305.2960018602523
 22
65.92622770070362
 32
0.0
 13
305.2960018602523
 23
65.92622770070362
 33
0.0
  0
MTEXT
  5
1612
330
15F6
100
AcDbEntity
  8
MAßE
 62
     0
100
AcDbMText
 10
303.4210018602523
 20
77.92622770070372
 30
0.0
 40
2.5
 41
0.0
 71
     5
 72
     1
  1
%%c24
 11
0.0000000000000001
 21
1.0
 31
0.0
 73
     1
 44
1.0
1001
ACAD
1000
MTEXTBEGIN
1070
    73
1070
     1
1070
    44
1040
1.0
1070
    74
1070
     0
1000
MTEXTEND
  0
POINT
  5
1613
330
15F6
100
AcDbEntity
  8
DEFPOINTS
 62
     0
100
AcDbPoint
 10
275.8935271500943
 20
89.92622770070372
 30
0.0
  0
POINT
  5
1614
330
15F6
100
AcDbEntity
  8
DEFPOINTS
 62
     0
100
AcDbPoint
 10
275.8935271500943
 20
65.92622770070363
 30
0.0
  0
POINT
  5
1615
330
15F6
100
AcDbEntity
  8
DEFPOINTS
 62
     0
100
AcDbPoint
 10
305.2960018602523
 20
65.92622770070362
 30
0.0
  0
ENDBLK
  5
1601
330
15F6
100
AcDbEntity
  8
0
100
AcDbBlockEnd
  0
BLOCK
  5
1621
330
1617
100
AcDbEntity
  8
0
100
AcDbBlockBegin
  2
*D11
 70
     1
 10
0.0
 20
0.0
 30
0.0
  3
*D11
  1

  0
LINE
  5
16F5
330
1617
100
AcDbEntity
  8
MAßE
 62
     0
370
    -2
100
AcDbLine
 10
241.0185271500942
 20
84.92622770070372
 30
0.0
 11
252.3935271500942
 21
84.92622770070372
 31
0.0
  0
LINE
  5
16F6
330
1617
100
AcDbEntity
  8
MAßE
 62
     0
370
    -2
100
AcDbLine
 10
241.0185271500943
 20
70.9262277007036
 30
0.0
 11
252.3935271500942
 21
70.9262277007036
 31
0.0
  0
LINE
  5
16F7
330
1617
100
AcDbEntity
  8
MAßE
 62
     0
370
    -2
100
AcDbLine
 10
251.1435271500943
 20
82.42622770070372
 30
0.0
 11
251.1435271500943
 21
73.4262277007036
 31
0.0
  0
LINE
  5
16F8
330
1617
100
AcDbEntity
  8
MAßE
 62
     0
370
    -2
100
AcDbLine
 10
251.1435271500943
 20
70.9262277007036
 30
0.0
 11
251.1435271500942
 21
53.84289436737027
 31
0.0
  0
SOLID
  5
16F9
330
1617
100
AcDbEntity
  8
MAßE
 62
     0
100
AcDbTrace
 10
250.7268604834276
 20
82.42622770070372
 30
0.0
 11
251.5601938167609
 21
82.42622770070372
 31
0.0
 12
251.1435271500943
 22
84.92622770070372
 32
0.0
 13
251.1435271500943
 23
84.92622770070372
 33
0.0
  0
SOLID
  5
16FA
330
1617
100
AcDbEntity
  8
MAßE
 62
     0
100
AcDbTrace
 10
250.7268604834276
 20
73.4262277007036
 30
0.0
 11
251.5601938167609
 21
73.4262277007036
 31
0.0
 12
251.1435271500943
 22
70.9262277007036
 32
0.0
 13
251.1435271500943
 23
70.9262277007036
 33
0.0
  0
MTEXT
  5
16FB
330
1617
100
AcDbEntity
  8
MAßE
 62
     0
100
AcDbMText
 10
249.2685271500942
 20
61.13456103403698
 30
0.0
 40
2.5
 41
0.0
 71
     5
 72
     1
  1
%%c14 k6
 11
0.0000000000000001
 21
1.0
 31
0.0
 73
     1
 44
1.0
1001
ACAD
1000
MTEXTBEGIN
1070
    73
1070
     1
1070
    44
1040
1.0
1070
    74
1070
     0
1000
MTEXTEND
  0
POINT
  5
16FC
330
1617
100
AcDbEntity
  8
DEFPOINTS
 62
     0
100
AcDbPoint
 10
240.3935271500942
 20
84.92622770070372
 30
0.0
  0
POINT
  5
16FD
330
1617
100
AcDbEntity
  8
DEFPOINTS
 62
     0
100
AcDbPoint
 10
240.3935271500943
 20
70.9262277007036
 30
0.0
  0
POINT
  5
16FE
330
1617
100
AcDbEntity
  8
DEFPOINTS
 62
     0
100
AcDbPoint
 10
251.1435271500943
 20
70.9262277007036
 30
0.0
  0
ENDBLK
  5
1622
330
1617
100
AcDbEntity
  8
0
100
AcDbBlockEnd
  0
BLOCK
  5
1667
330
165B
100
AcDbEntity
  8
0
100
AcDbBlockBegin
  2
*D12
 70
     1
 10
0.0
 20
0.0
 30
0.0
  3
*D12
  1

  0
LINE
  5
165C
330
165B
100
AcDbEntity
  8
MAßE
 62
     0
370
    -2
100
AcDbLine
 10
192.0185273829481
 20
79.42622770070366
 30
0.0
 11
200.1553877843046
 21
79.42622770070366
 31
0.0
  0
LINE
  5
165D
330
165B
100
AcDbEntity
  8
MAßE
 62
     0
370
    -2
100
AcDbLine
 10
192.0185273829481
 20
76.42622770070374
 30
0.0
 11
200.1553877843046
 21
76.42622770070374
 31
0.0
  0
LINE
  5
165E
330
165B
100
AcDbEntity
  8
MAßE
 62
     0
370
    -2
100
AcDbLine
 10
198.9053877843046
 20
81.92622770070366
 30
0.0
 11
198.9053877843046
 21
84.42622770070366
 31
0.0
  0
LINE
  5
165F
330
165B
100
AcDbEntity
  8
MAßE
 62
     0
370
    -2
100
AcDbLine
 10
198.9053877843046
 20
73.92622770070374
 30
0.0
 11
198.9053877843046
 21
71.42622770070374
 31
0.0
  0
LINE
  5
1660
330
165B
100
AcDbEntity
  8
MAßE
 62
     0
370
    -2
100
AcDbLine
 10
198.9053877843046
 20
79.42622770070366
 30
0.0
 11
198.9053877843046
 21
76.42622770070374
 31
0.0
  0
SOLID
  5
1661
330
165B
100
AcDbEntity
  8
MAßE
 62
     0
100
AcDbTrace
 10
198.4887211176379
 20
81.92622770070366
 30
0.0
 11
199.3220544509712
 21
81.92622770070366
 31
0.0
 12
198.9053877843046
 22
79.42622770070366
 32
0.0
 13
198.9053877843046
 23
79.42622770070366
 33
0.0
  0
SOLID
  5
1662
330
165B
100
AcDbEntity
  8
MAßE
 62
     0
100
AcDbTrace
 10
198.4887211176379
 20
73.92622770070374
 30
0.0
 11
199.3220544509712
 21
73.92622770070374
 31
0.0
 12
198.9053877843046
 22
76.42622770070374
 32
0.0
 13
198.9053877843046
 23
76.42622770070374
 33
0.0
  0
MTEXT
  5
1663
330
165B
100
AcDbEntity
  8
MAßE
 62
     0
100
AcDbMText
 10
197.0303877843045
 20
77.92622770070373
 30
0.0
 40
2.5
 41
0.0
 71
     5
 72
     1
  1
3
 11
0.0000000000000001
 21
1.0
 31
0.0
 73
     1
 44
1.0
1001
ACAD
1000
MTEXTBEGIN
1070
    73
1070
     1
1070
    44
1040
1.0
1070
    74
1070
     0
1000
MTEXTEND
  0
POINT
  5
1664
330
165B
100
AcDbEntity
  8
DEFPOINTS
 62
     0
100
AcDbPoint
 10
191.3935273829481
 20
79.42622770070366
 30
0.0
  0
POINT
  5
1665
330
165B
100
AcDbEntity
  8
DEFPOINTS
 62
     0
100
AcDbPoint
 10
191.3935273829481
 20
76.42622770070374
 30
0.0
  0
POINT
  5
1666
330
165B
100
AcDbEntity
  8
DEFPOINTS
 62
     0
100
AcDbPoint
 10
198.9053877843046
 20
76.42622770070374
 30
0.0
  0
ENDBLK
  5
1668
330
165B
100
AcDbEntity
  8
0
100
AcDbBlockEnd
  0
BLOCK
  5
1674
330
166A
100
AcDbEntity
  8
0
100
AcDbBlockBegin
  2
*D13
 70
     1
 10
0.0
 20
0.0
 30
0.0
  3
*D13
  1

  0
LINE
  5
1678
330
166A
100
AcDbEntity
  8
MAßE
 62
     0
370
    -2
100
AcDbLine
 10
162.7685273829481
 20
81.92622770070366
 30
0.0
 11
151.3313412097011
 21
81.92622770070368
 31
0.0
  0
LINE
  5
1679
330
166A
100
AcDbEntity
  8
MAßE
 62
     0
370
    -2
100
AcDbLine
 10
162.7685273829481
 20
73.92622770070366
 30
0.0
 11
151.3313412097011
 21
73.92622770070367
 31
0.0
  0
LINE
  5
167A
330
166A
100
AcDbEntity
  8
MAßE
 62
     0
370
    -2
100
AcDbLine
 10
152.5813412097011
 20
79.42622770070368
 30
0.0
 11
152.5813412097011
 21
76.42622770070367
 31
0.0
  0
SOLID
  5
167B
330
166A
100
AcDbEntity
  8
MAßE
 62
     0
100
AcDbTrace
 10
152.1646745430344
 20
79.42622770070368
 30
0.0
 11
152.9980078763678
 21
79.42622770070368
 31
0.0
 12
152.5813412097011
 22
81.92622770070368
 32
0.0
 13
152.5813412097011
 23
81.92622770070368
 33
0.0
  0
SOLID
  5
167C
330
166A
100
AcDbEntity
  8
MAßE
 62
     0
100
AcDbTrace
 10
152.1646745430344
 20
76.42622770070367
 30
0.0
 11
152.9980078763678
 21
76.42622770070367
 31
0.0
 12
152.5813412097011
 22
73.92622770070367
 32
0.0
 13
152.5813412097011
 23
73.92622770070367
 33
0.0
  0
MTEXT
  5
167D
330
166A
100
AcDbEntity
  8
MAßE
 62
     0
100
AcDbMText
 10
150.7063412097011
 20
77.92622770070369
 30
0.0
 40
2.5
 41
0.0
 71
     5
 72
     1
  1
M8
 11
0.0000000000000001
 21
1.0
 31
0.0
 73
     1
 44
1.0
1001
ACAD
1000
MTEXTBEGIN
1070
    73
1070
     1
1070
    44
1040
1.0
1070
    74
1070
     0
1000
MTEXTEND
  0
POINT
  5
167E
330
166A
100
AcDbEntity
  8
DEFPOINTS
 62
     0
100
AcDbPoint
 10
163.3935273829481
 20
81.92622770070366
 30
0.0
  0
POINT
  5
167F
330
166A
100
AcDbEntity
  8
DEFPOINTS
 62
     0
100
AcDbPoint
 10
163.3935273829481
 20
73.92622770070366
 30
0.0
  0
POINT
  5
1680
330
166A
100
AcDbEntity
  8
DEFPOINTS
 62
     0
100
AcDbPoint
 10
152.5813412097011
 20
73.92622770070367
 30
0.0
  0
ENDBLK
  5
1675
330
166A
100
AcDbEntity
  8
0
100
AcDbBlockEnd
  0
BLOCK
  5
168C
330
1682
100
AcDbEntity
  8
0
100
AcDbBlockBegin
  2
*D14
 70
     1
 10
0.0
 20
0.0
 30
0.0
  3
*D14
  1

  0
LINE
  5
1698
330
1682
100
AcDbEntity
  8
MAßE
 62
     0
370
    -2
100
AcDbLine
 10
177.768527382948
 20
83.92622770070365
 30
0.0
 11
146.4574436284094
 21
83.92622770070367
 31
0.0
  0
LINE
  5
1699
330
1682
100
AcDbEntity
  8
MAßE
 62
     0
370
    -2
100
AcDbLine
 10
177.768527382948
 20
71.92622770070366
 30
0.0
 11
146.4574436284094
 21
71.92622770070368
 31
0.0
  0
LINE
  5
169A
330
1682
100
AcDbEntity
  8
MAßE
 62
     0
370
    -2
100
AcDbLine
 10
147.7074436284094
 20
81.42622770070367
 30
0.0
 11
147.7074436284094
 21
74.42622770070368
 31
0.0
  0
LINE
  5
169B
330
1682
100
AcDbEntity
  8
MAßE
 62
     0
370
    -2
100
AcDbLine
 10
147.7074436284094
 20
71.92622770070368
 30
0.0
 11
147.7074436284094
 21
54.84289436737033
 31
0.0
  0
SOLID
  5
169C
330
1682
100
AcDbEntity
  8
MAßE
 62
     0
100
AcDbTrace
 10
147.2907769617428
 20
81.42622770070367
 30
0.0
 11
148.1241102950761
 21
81.42622770070367
 31
0.0
 12
147.7074436284094
 22
83.92622770070367
 32
0.0
 13
147.7074436284094
 23
83.92622770070367
 33
0.0
  0
SOLID
  5
169D
330
1682
100
AcDbEntity
  8
MAßE
 62
     0
100
AcDbTrace
 10
147.2907769617428
 20
74.42622770070368
 30
0.0
 11
148.1241102950761
 21
74.42622770070368
 31
0.0
 12
147.7074436284094
 22
71.92622770070368
 32
0.0
 13
147.7074436284094
 23
71.92622770070368
 33
0.0
  0
MTEXT
  5
169E
330
1682
100
AcDbEntity
  8
MAßE
 62
     0
100
AcDbMText
 10
145.8324436284094
 20
62.13456103403703
 30
0.0
 40
2.5
 41
0.0
 71
     5
 72
     1
  1
%%c12 k6
 11
0.0000000000000001
 21
1.0
 31
0.0
 73
     1
 44
1.0
1001
ACAD
1000
MTEXTBEGIN
1070
    73
1070
     1
1070
    44
1040
1.0
1070
    74
1070
     0
1000
MTEXTEND
  0
POINT
  5
169F
330
1682
100
AcDbEntity
  8
DEFPOINTS
 62
     0
100
AcDbPoint
 10
178.393527382948
 20
83.92622770070365
 30
0.0
  0
POINT
  5
16A0
330
1682
100
AcDbEntity
  8
DEFPOINTS
 62
     0
100
AcDbPoint
 10
178.393527382948
 20
71.92622770070366
 30
0.0
  0
POINT
  5
16A1
330
1682
100
AcDbEntity
  8
DEFPOINTS
 62
     0
100
AcDbPoint
 10
147.7074436284094
 20
71.92622770070368
 30
0.0
  0
ENDBLK
  5
168D
330
1682
100
AcDbEntity
  8
0
100
AcDbBlockEnd
  0
BLOCK
  5
16AD
330
16A3
100
AcDbEntity
  8
0
100
AcDbBlockBegin
  2
*D15
 70
     1
 10
0.0
 20
0.0
 30
0.0
  3
*D15
  1

  0
LINE
  5
16A4
330
16A3
100
AcDbEntity
  8
MAßE
 62
     0
370
    -2
100
AcDbLine
 10
178.393527382948
 20
71.30122770070366
 30
0.0
 11
178.393527382948
 21
64.12022555834823
 31
0.0
  0
LINE
  5
16A5
330
16A3
100
AcDbEntity
  8
MAßE
 62
     0
370
    -2
100
AcDbLine
 10
191.393527382948
 20
73.99381303964389
 30
0.0
 11
191.393527382948
 21
64.12022555834823
 31
0.0
  0
LINE
  5
16A6
330
16A3
100
AcDbEntity
  8
MAßE
 62
     0
370
    -2
100
AcDbLine
 10
180.893527382948
 20
65.37022555834823
 30
0.0
 11
188.893527382948
 21
65.37022555834823
 31
0.0
  0
SOLID
  5
16A7
330
16A3
100
AcDbEntity
  8
MAßE
 62
     0
100
AcDbTrace
 10
180.893527382948
 20
65.78689222501491
 30
0.0
 11
180.893527382948
 21
64.95355889168156
 31
0.0
 12
178.393527382948
 22
65.37022555834823
 32
0.0
 13
178.393527382948
 23
65.37022555834823
 33
0.0
  0
SOLID
  5
16A8
330
16A3
100
AcDbEntity
  8
MAßE
 62
     0
100
AcDbTrace
 10
188.893527382948
 20
65.78689222501491
 30
0.0
 11
188.893527382948
 21
64.95355889168156
 31
0.0
 12
191.393527382948
 22
65.37022555834823
 32
0.0
 13
191.393527382948
 23
65.37022555834823
 33
0.0
  0
MTEXT
  5
16A9
330
16A3
100
AcDbEntity
  8
MAßE
 62
     0
100
AcDbMText
 10
184.893527382948
 20
67.24522555834823
 30
0.0
 40
2.5
 41
0.0
 71
     5
 72
     1
  1
13
 73
     1
 44
1.0
1001
ACAD
1000
MTEXTBEGIN
1070
    73
1070
     1
1070
    44
1040
1.0
1070
    74
1070
     0
1000
MTEXTEND
  0
POINT
  5
16AA
330
16A3
100
AcDbEntity
  8
DEFPOINTS
 62
     0
100
AcDbPoint
 10
178.393527382948
 20
71.92622770070366
 30
0.0
  0
POINT
  5
16AB
330
16A3
100
AcDbEntity
  8
DEFPOINTS
 62
     0
100
AcDbPoint
 10
191.393527382948
 20
74.61881303964389
 30
0.0
  0
POINT
  5
16AC
330
16A3
100
AcDbEntity
  8
DEFPOINTS
 62
     0
100
AcDbPoint
 10
191.393527382948
 20
65.37022555834823
 30
0.0
  0
ENDBLK
  5
16AE
330
16A3
100
AcDbEntity
  8
0
100
AcDbBlockEnd
  0
BLOCK
  5
16BA
330
16B0
100
AcDbEntity
  8
0
100
AcDbBlockBegin
  2
*D16
 70
     1
 10
0.0
 20
0.0
 30
0.0
  3
*D16
  1

  0
LINE
  5
16EC
330
16B0
100
AcDbEntity
  8
MAßE
 62
     0
370
    -2
100
AcDbLine
 10
162.3935273829481
 20
75.80122770070365
 30
0.0
 11
162.3935273829481
 21
47.81600502772517
 31
0.0
  0
LINE
  5
16ED
330
16B0
100
AcDbEntity
  8
MAßE
 62
     0
370
    -2
100
AcDbLine
 10
290.8935271500943
 20
71.30122770070369
 30
0.0
 11
290.8935271500943
 21
47.81600502772517
 31
0.0
  0
LINE
  5
16EE
330
16B0
100
AcDbEntity
  8
MAßE
 62
     0
370
    -2
100
AcDbLine
 10
164.8935273829481
 20
49.06600502772517
 30
0.0
 11
288.3935271500943
 21
49.06600502772517
 31
0.0
  0
SOLID
  5
16EF
330
16B0
100
AcDbEntity
  8
MAßE
 62
     0
100
AcDbTrace
 10
164.8935273829481
 20
49.48267169439183
 30
0.0
 11
164.8935273829481
 21
48.6493383610585
 31
0.0
 12
162.3935273829481
 22
49.06600502772517
 32
0.0
 13
162.3935273829481
 23
49.06600502772517
 33
0.0
  0
SOLID
  5
16F0
330
16B0
100
AcDbEntity
  8
MAßE
 62
     0
100
AcDbTrace
 10
288.3935271500943
 20
49.48267169439183
 30
0.0
 11
288.3935271500943
 21
48.6493383610585
 31
0.0
 12
290.8935271500943
 22
49.06600502772517
 32
0.0
 13
290.8935271500943
 23
49.06600502772517
 33
0.0
  0
MTEXT
  5
16F1
330
16B0
100
AcDbEntity
  8
MAßE
 62
     0
100
AcDbMText
 10
206.2634124123949
 20
51.1493383610585
 30
0.0
 40
2.5
 41
0.0
 71
     5
 72
     1
  1
128,5
 73
     1
 44
1.0
1001
ACAD
1000
MTEXTBEGIN
1070
    73
1070
     1
1070
    44
1040
1.0
1070
    74
1070
     0
1000
MTEXTEND
  0
POINT
  5
16F2
330
16B0
100
AcDbEntity
  8
DEFPOINTS
 62
     0
100
AcDbPoint
 10
162.3935273829481
 20
76.42622770070365
 30
0.0
  0
POINT
  5
16F3
330
16B0
100
AcDbEntity
  8
DEFPOINTS
 62
     0
100
AcDbPoint
 10
290.8935271500943
 20
71.92622770070369
 30
0.0
  0
POINT
  5
16F4
330
16B0
100
AcDbEntity
  8
DEFPOINTS
 62
     0
100
AcDbPoint
 10
290.8935271500943
 20
49.06600502772517
 30
0.0
  0
ENDBLK
  5
16BB
330
16B0
100
AcDbEntity
  8
0
100
AcDbBlockEnd
  0
BLOCK
  5
16C3
330
16BD
100
AcDbEntity
  8
0
100
AcDbBlockBegin
  2
*D17
 70
     1
 10
0.0
 20
0.0
 30
0.0
  3
*D17
  1

  0
LINE
  5
16CA
330
16BD
100
AcDbEntity
  8
MAßE
 62
     0
370
    -2
100
AcDbLine
 10
268.8935271500943
 20
57.64466934805906
 30
0.0
 11
268.8935271500943
 21
65.61675268139244
 31
0.0
  0
MTEXT
  5
16CB
330
16BD
100
AcDbEntity
  8
MAßE
 62
     0
100
AcDbMText
 10
267.0185271500943
 20
60.35300268139245
 30
0.0
 40
2.5
 41
0.0
 71
     5
 72
     1
  1
R8
 11
0.0000000000000001
 21
1.0
 31
0.0
 73
     1
 44
1.0
1001
ACAD
1000
MTEXTBEGIN
1070
    73
1070
     1
1070
    44
1040
1.0
1070
    74
1070
     0
1000
MTEXTEND
  0
SOLID
  5
16CC
330
16BD
100
AcDbEntity
  8
MAßE
 62
     0
100
AcDbTrace
 10
268.4768604834276
 20
65.61675268139244
 30
0.0
 11
269.310193816761
 21
65.61675268139244
 31
0.0
 12
268.8935271500943
 22
68.11675268139244
 32
0.0
 13
268.8935271500943
 23
68.11675268139244
 33
0.0
  0
POINT
  5
16CD
330
16BD
100
AcDbEntity
  8
DEFPOINTS
 62
     0
100
AcDbPoint
 10
268.8935271500943
 20
68.11675268139244
 30
0.0
  0
POINT
  5
16CE
330
16BD
100
AcDbEntity
  8
DEFPOINTS
 62
     0
100
AcDbPoint
 10
268.8935271500948
 20
60.11675268139251
 30
0.0
  0
ENDBLK
  5
16C4
330
16BD
100
AcDbEntity
  8
0
100
AcDbBlockEnd
  0
ENDSEC
  0
SECTION
  2
ENTITIES
  0
LINE
  5
13F0
330
1F
100
AcDbEntity
  8
linien
100
AcDbLine
 10
178.3935273829481
 20
71.92622770070369
 30
0.0
 11
240.3935271500943
 21
71.92622770070361
 31
0.0
  0
LINE
  5
13F1
330
1F
100
AcDbEntity
  8
linien
100
AcDbLine
 10
178.3935273829481
 20
83.92622770070365
 30
0.0
 11
240.3935271500943
 21
83.92622770070373
 31
0.0
  0
LINE
  5
13F2
330
1F
100
AcDbEntity
  8
ACHSEN
100
AcDbLine
 10
157.5016887061924
 20
77.92622770070366
 30
0.0
 11
293.6869171095608
 21
77.92622770070369
 31
0.0
  0
LINE
  5
13F3
330
1F
100
AcDbEntity
  8
linien
100
AcDbLine
 10
162.3935273829481
 20
74.92622770070366
 30
0.0
 11
178.393527382948
 21
74.92622770070366
 31
0.0
  0
LINE
  5
13F4
330
1F
100
AcDbEntity
  8
linien
100
AcDbLine
 10
163.3935273829481
 20
73.92622770070366
 30
0.0
 11
178.393527382948
 21
73.92622770070366
 31
0.0
  0
LINE
  5
13F5
330
1F
100
AcDbEntity
  8
linien
100
AcDbLine
 10
162.3935273829481
 20
80.92622770070367
 30
0.0
 11
178.393527382948
 21
80.92622770070367
 31
0.0
  0
LINE
  5
13F6
330
1F
100
AcDbEntity
  8
linien
100
AcDbLine
 10
163.3935273829481
 20
81.92622770070366
 30
0.0
 11
178.393527382948
 21
81.92622770070366
 31
0.0
  0
LINE
  5
13F7
330
1F
100
AcDbEntity
  8
linien
100
AcDbLine
 10
162.3935273829481
 20
74.92622770070363
 30
0.0
 11
162.3935273829481
 21
77.92622770070366
 31
0.0
  0
LINE
  5
13F8
330
1F
100
AcDbEntity
  8
linien
100
AcDbLine
 10
163.3935273829481
 20
73.92622770070366
 30
0.0
 11
163.3935273829481
 21
77.92622770070369
 31
0.0
  0
LINE
  5
13F9
330
1F
100
AcDbEntity
  8
linien
100
AcDbLine
 10
162.3935273829481
 20
74.92622770070366
 30
0.0
 11
163.3935273829481
 21
73.92622770070366
 31
0.0
  0
LINE
  5
13FA
330
1F
100
AcDbEntity
  8
linien
100
AcDbLine
 10
163.3935273829481
 20
81.92622770070366
 30
0.0
 11
163.3935273829481
 21
77.92622770070363
 31
0.0
  0
LINE
  5
13FB
330
1F
100
AcDbEntity
  8
linien
100
AcDbLine
 10
162.3935273829481
 20
80.92622770070367
 30
0.0
 11
163.3935273829481
 21
81.92622770070366
 31
0.0
  0
LINE
  5
13FC
330
1F
100
AcDbEntity
  8
linien
100
AcDbLine
 10
162.3935273829481
 20
80.92622770070368
 30
0.0
 11
162.3935273829481
 21
77.92622770070366
 31
0.0
  0
LINE
  5
13FD
330
1F
100
AcDbEntity
  8
linien
100
AcDbLine
 10
191.3935273829481
 20
76.42622770070374
 30
0.0
 11
178.3935273829481
 21
76.42622770070369
 31
0.0
  0
LINE
  5
13FE
330
1F
100
AcDbEntity
  8
linien
100
AcDbLine
 10
191.3935273829481
 20
79.42622770070366
 30
0.0
 11
178.3935273829481
 21
79.42622770070366
 31
0.0
  0
LINE
  5
13FF
330
1F
100
AcDbEntity
  8
linien
100
AcDbLine
 10
178.393527382948
 20
71.92622770070366
 30
0.0
 11
178.3935273829481
 21
77.92622770070366
 31
0.0
  0
LINE
  5
1400
330
1F
100
AcDbEntity
  8
linien
100
AcDbLine
 10
178.393527382948
 20
83.92622770070365
 30
0.0
 11
178.3935273829481
 21
77.92622770070366
 31
0.0
  0
ARC
  5
1401
330
1F
100
AcDbEntity
  8
linien
100
AcDbCircle
 10
191.393527382948
 20
77.92622770070375
 30
0.0
 40
1.5
100
AcDbArc
 50
270.0000000000013
 51
359.9999999999992
  0
ARC
  5
1402
330
1F
100
AcDbEntity
  8
linien
100
AcDbCircle
 10
191.393527382948
 20
77.92622770070366
 30
0.0
 40
1.5
100
AcDbArc
 50
0.0000000000010856
 51
89.99999999999891
  0
LINE
  5
1403
330
1F
100
AcDbEntity
  8
ACHSEN
100
AcDbLine
 10
191.393527382948
 20
74.61881303964389
 30
0.0
 11
191.3935270906611
 21
80.71818626447997
 31
0.0
  0
LINE
  5
1404
330
1F
100
AcDbEntity
  8
linien
100
AcDbLine
 10
275.8935271500943
 20
89.92622770070372
 30
0.0
 11
275.8935271500943
 21
84.92622770070372
 31
0.0
  0
LINE
  5
1405
330
1F
100
AcDbEntity
  8
linien
100
AcDbLine
 10
261.8935271500943
 20
89.92622770070374
 30
0.0
 11
261.8935271500943
 21
85.92622770070368
 31
0.0
  0
LINE
  5
1409
330
1F
100
AcDbEntity
  8
linien
100
AcDbLine
 10
240.3935271500942
 20
70.9262277007036
 30
0.0
 11
240.3935271500942
 21
77.92622770070369
 31
0.0
  0
LINE
  5
140D
330
1F
100
AcDbEntity
  8
linien
100
AcDbLine
 10
240.3935271500943
 20
70.9262277007036
 30
0.0
 11
261.8935271500943
 21
70.92622770070377
 31
0.0
  0
LINE
  5
1410
330
1F
100
AcDbEntity
  8
linien
100
AcDbLine
 10
240.3935271500942
 20
84.92622770070372
 30
0.0
 11
240.3935271500942
 21
77.92622770070363
 31
0.0
  0
LINE
  5
1411
330
1F
100
AcDbEntity
  8
linien
100
AcDbLine
 10
240.3935271500943
 20
84.92622770070372
 30
0.0
 11
261.8935271500943
 21
84.9262277007037
 31
0.0
  0
LINE
  5
1414
330
1F
100
AcDbEntity
  8
linien
100
AcDbLine
 10
261.8935271500943
 20
85.92622770070368
 30
0.0
 11
261.8935271500943
 21
69.92622770070369
 31
0.0
  0
LINE
  5
1415
330
1F
100
AcDbEntity
  8
linien
100
AcDbLine
 10
261.8935271500943
 20
65.9262277007036
 30
0.0
 11
261.8935271500943
 21
69.92622770070369
 31
0.0
  0
LINE
  5
1419
330
1F
100
AcDbEntity
  8
linien
100
AcDbLine
 10
275.8935271500943
 20
84.92622770070372
 30
0.0
 11
275.8935271500943
 21
70.92622770070367
 31
0.0
  0
LINE
  5
141A
330
1F
100
AcDbEntity
  8
linien
100
AcDbLine
 10
290.8935271500943
 20
71.92622770070369
 30
0.0
 11
290.8935271500943
 21
77.92622770070369
 31
0.0
  0
LINE
  5
141B
330
1F
100
AcDbEntity
  8
linien
100
AcDbLine
 10
276.8935271500942
 20
71.92622770070366
 30
0.0
 11
290.8935271500943
 21
71.92622770070369
 31
0.0
  0
LINE
  5
141C
330
1F
100
AcDbEntity
  8
linien
100
AcDbLine
 10
275.8935271500943
 20
65.92622770070367
 30
0.0
 11
275.8935271500943
 21
70.92622770070367
 31
0.0
  0
ARC
  5
141D
330
1F
100
AcDbEntity
  8
linien
100
AcDbCircle
 10
276.8935271500942
 20
70.92622770070367
 30
0.0
 40
1.0
100
AcDbArc
 50
90.00000000000012
 51
180.0
  0
LINE
  5
141E
330
1F
100
AcDbEntity
  8
linien
100
AcDbLine
 10
276.8935271500942
 20
83.92622770070373
 30
0.0
 11
290.8935271500943
 21
83.92622770070369
 31
0.0
  0
ARC
  5
141F
330
1F
100
AcDbEntity
  8
linien
100
AcDbCircle
 10
276.8935271500942
 20
84.92622770070372
 30
0.0
 40
1.0
100
AcDbArc
 50
180.0
 51
269.9999999999999
  0
LINE
  5
1420
330
1F
100
AcDbEntity
  8
linien
100
AcDbLine
 10
290.8935271500943
 20
83.92622770070369
 30
0.0
 11
290.8935271500943
 21
77.92622770070369
 31
0.0
  0
LINE
  5
1421
330
1F
100
AcDbEntity
  8
linien
100
AcDbLine
 10
261.8935271500943
 20
89.92622770070374
 30
0.0
 11
263.3935271500943
 21
89.92622770070374
 31
0.0
  0
LINE
  5
153A
330
1F
100
AcDbEntity
  8
linien
100
AcDbLine
 10
263.3935271500943
 20
89.92622770070374
 30
0.0
 11
263.3935271500943
 21
77.92622770070369
 31
0.0
  0
LINE
  5
153B
330
1F
100
AcDbEntity
  8
linien
100
AcDbLine
 10
274.3935271500943
 20
89.92622770070372
 30
0.0
 11
274.3935271500943
 21
77.92622770070369
 31
0.0
  0
ARC
  5
1540
330
1F
100
AcDbEntity
  8
linien
100
AcDbCircle
 10
268.8935271500942
 20
95.73570272001488
 30
0.0
 40
7.999999999999997
100
AcDbArc
 50
226.5674634422103
 51
313.4325365577898
  0
LINE
  5
1541
330
1F
100
AcDbEntity
  8
linien
100
AcDbLine
 10
274.3935271500943
 20
89.92622770070372
 30
0.0
 11
275.8935271500943
 21
89.92622770070372
 31
0.0
  0
ARC
  5
1542
330
1F
100
AcDbEntity
  8
linien
100
AcDbCircle
 10
268.8935271500943
 20
60.11675268139246
 30
0.0
 40
7.999999999999997
100
AcDbArc
 50
46.56746344221039
 51
133.4325365577897
  0
LINE
  5
1543
330
1F
100
AcDbEntity
  8
linien
100
AcDbLine
 10
263.3935271500943
 20
65.92622770070358
 30
0.0
 11
263.3935271500943
 21
77.92622770070363
 31
0.0
  0
LINE
  5
1544
330
1F
100
AcDbEntity
  8
linien
100
AcDbLine
 10
274.3935271500943
 20
65.92622770070363
 30
0.0
 11
274.3935271500943
 21
77.92622770070365
 31
0.0
  0
LINE
  5
1545
330
1F
100
AcDbEntity
  8
linien
100
AcDbLine
 10
274.3935271500943
 20
65.92622770070363
 30
0.0
 11
275.8935271500943
 21
65.92622770070363
 31
0.0
  0
LINE
  5
1546
330
1F
100
AcDbEntity
  8
linien
100
AcDbLine
 10
261.8935271500943
 20
65.92622770070358
 30
0.0
 11
263.3935271500943
 21
65.92622770070358
 31
0.0
  0
DIMENSION
  5
156F
330
1F
100
AcDbEntity
  8
MAßE
100
AcDbDimension
  2
*D2
 10
178.393527382948
 20
98.4631210020151
 30
0.0
 11
170.3935273829481
 21
100.3381210020151
 31
0.0
 70
    32
 71
     5
 42
15.99999999999994
  3
ISO-25
100
AcDbAlignedDimension
 13
162.3935273829481
 23
81.92622770070366
 33
0.0
 14
178.393527382948
 24
83.92622770070365
 34
0.0
100
AcDbRotatedDimension
  0
DIMENSION
  5
157C
330
1F
100
AcDbEntity
  8
MAßE
100
AcDbDimension
  2
*D3
 10
240.3935271500942
 20
98.4631210020151
 30
0.0
 11
209.3935272665211
 21
100.3381210020151
 31
0.0
 70
    32
 71
     5
 42
61.99999976714616
  3
ISO-25
100
AcDbAlignedDimension
 13
178.393527382948
 23
83.92622770070365
 33
0.0
 14
240.3935271500942
 24
84.92622770070372
 34
0.0
100
AcDbRotatedDimension
1001
ACAD
1000
DSTYLE
1002
{
1070
   279
1070
     1
1002
}
  0
DIMENSION
  5
1589
330
1F
100
AcDbEntity
  8
MAßE
100
AcDbDimension
  2
*D4
 10
261.8935271500943
 20
98.4631210020151
 30
0.0
 11
251.1435271500943
 21
100.5464543353484
 31
0.0
 70
    32
 71
     5
 42
21.50000000000003
  3
ISO-25
100
AcDbAlignedDimension
 13
240.3935271500942
 23
84.92622770070372
 33
0.0
 14
261.8935271500943
 24
89.92622770070374
 34
0.0
100
AcDbRotatedDimension
1001
ACAD
1000
DSTYLE
1002
{
1070
   279
1070
     1
1002
}
  0
DIMENSION
  5
1596
330
1F
100
AcDbEntity
  8
MAßE
100
AcDbDimension
  2
*D5
 10
263.3935271500943
 20
98.4631210020151
 30
0.0
 11
264.3622771500943
 21
104.1922876686817
 31
0.0
 70
    32
 71
     5
 42
1.5
  3
ISO-25
100
AcDbAlignedDimension
 13
261.8935271500943
 23
89.92622770070374
 33
0.0
 14
263.3935271500943
 24
89.92622770070376
 34
0.0
100
AcDbRotatedDimension
1001
ACAD
1000
DSTYLE
1002
{
1070
   279
1070
     1
1002
}
  0
DIMENSION
  5
15A8
330
1F
100
AcDbEntity
  8
MAßE
100
AcDbDimension
  2
*D6
 10
274.3935271500943
 20
98.4631210020151
 30
0.0
 11
268.8935271500942
 21
100.3381210020151
 31
0.0
 70
    32
 71
     5
 42
11.0
  3
ISO-25
100
AcDbAlignedDimension
 13
263.3935271500943
 23
89.92622770070376
 33
0.0
 14
274.3935271500943
 24
89.92622770070378
 34
0.0
100
AcDbRotatedDimension
1001
ACAD
1000
DSTYLE
1002
{
1070
   279
1070
     1
1002
}
  0
DIMENSION
  5
15B5
330
1F
100
AcDbEntity
  8
MAßE
100
AcDbDimension
  2
*D7
 10
275.8935271500943
 20
98.4631210020151
 30
0.0
 11
276.8622771500943
 21
104.1922876686817
 31
0.0
 70
    32
 71
     5
 42
1.5
  3
ISO-25
100
AcDbAlignedDimension
 13
274.3935271500943
 23
89.92622770070378
 33
0.0
 14
275.8935271500943
 24
91.34632159431316
 34
0.0
100
AcDbRotatedDimension
1001
ACAD
1000
DSTYLE
1002
{
1070
   279
1070
     1
1002
}
  0
DIMENSION
  5
15C7
330
1F
100
AcDbEntity
  8
MAßE
100
AcDbDimension
  2
*D8
 10
290.8935271500943
 20
98.4631210020151
 30
0.0
 11
283.3935271500942
 21
100.3381210020151
 31
0.0
 70
    32
 71
     5
 42
15.0
  3
ISO-25
100
AcDbAlignedDimension
 13
275.8935271500943
 23
91.34632159431316
 33
0.0
 14
290.8935271500943
 24
83.92622770070369
 34
0.0
100
AcDbRotatedDimension
1001
ACAD
1000
DSTYLE
1002
{
1070
   279
1070
     1
1002
}
  0
DIMENSION
  5
15D4
330
1F
100
AcDbEntity
  8
MAßE
100
AcDbDimension
  2
*D9
 10
297.4682604600978
 20
71.92622770070369
 30
0.0
 11
297.4682604600978
 21
56.8718562785217
 31
0.0
 70
   160
  1
%%c<> k6
 71
     5
 42
12.0
  3
ISO-25
100
AcDbAlignedDimension
 13
290.8935271500943
 23
83.92622770070369
 33
0.0
 14
290.8935271500943
 24
71.92622770070369
 34
0.0
 50
90.0
100
AcDbRotatedDimension
  0
DIMENSION
  5
15F5
330
1F
100
AcDbEntity
  8
MAßE
100
AcDbDimension
  2
*D10
 10
305.2960018602523
 20
65.92622770070362
 30
0.0
 11
303.4210018602523
 21
77.92622770070372
 31
0.0
 70
    32
  1
%%c<>
 71
     5
 42
24.00000000000009
  3
ISO-25
100
AcDbAlignedDimension
 13
275.8935271500943
 23
89.92622770070372
 33
0.0
 14
275.8935271500943
 24
65.92622770070363
 34
0.0
 50
90.0
100
AcDbRotatedDimension
  0
DIMENSION
  5
1616
330
1F
100
AcDbEntity
  8
MAßE
100
AcDbDimension
  2
*D11
 10
251.1435271500943
 20
70.9262277007036
 30
0.0
 11
251.1435271500942
 21
61.13456103403698
 31
0.0
 70
   160
  1
%%c<> k6
 71
     5
 42
14.00000000000011
  3
ISO-25
100
AcDbAlignedDimension
 13
240.3935271500942
 23
84.92622770070372
 33
0.0
 14
240.3935271500943
 24
70.9262277007036
 34
0.0
 50
90.0
100
AcDbRotatedDimension
  0
DIMENSION
  5
165A
330
1F
100
AcDbEntity
  8
MAßE
100
AcDbDimension
  2
*D12
 10
198.9053877843046
 20
76.42622770070374
 30
0.0
 11
197.0303877843045
 21
77.92622770070373
 31
0.0
 70
    32
 71
     5
 42
2.999999999999914
  3
ISO-25
100
AcDbAlignedDimension
 13
191.3935273829481
 23
79.42622770070366
 33
0.0
 14
191.3935273829481
 24
76.42622770070374
 34
0.0
 50
90.0
100
AcDbRotatedDimension
  0
DIMENSION
  5
1669
330
1F
100
AcDbEntity
  8
MAßE
100
AcDbDimension
  2
*D13
 10
152.5813412097011
 20
73.92622770070367
 30
0.0
 11
150.7063412097011
 21
77.92622770070369
 31
0.0
 70
    32
  1
M<>
 71
     5
 42
8.0
  3
ISO-25
100
AcDbAlignedDimension
 13
163.3935273829481
 23
81.92622770070366
 33
0.0
 14
163.3935273829481
 24
73.92622770070366
 34
0.0
 50
90.0
100
AcDbRotatedDimension
  0
DIMENSION
  5
1681
330
1F
100
AcDbEntity
  8
MAßE
100
AcDbDimension
  2
*D14
 10
147.7074436284094
 20
71.92622770070368
 30
0.0
 11
145.8324436284094
 21
62.13456103403703
 31
0.0
 70
    32
  1
%%c<> k6
 71
     5
 42
12.0
  3
ISO-25
100
AcDbAlignedDimension
 13
178.393527382948
 23
83.92622770070365
 33
0.0
 14
178.393527382948
 24
71.92622770070366
 34
0.0
 50
90.0
100
AcDbRotatedDimension
  0
DIMENSION
  5
16A2
330
1F
100
AcDbEntity
  8
MAßE
100
AcDbDimension
  2
*D15
 10
191.393527382948
 20
65.37022555834823
 30
0.0
 11
184.893527382948
 21
67.24522555834823
 31
0.0
 70
    32
 71
     5
 42
13.0
  3
ISO-25
100
AcDbAlignedDimension
 13
178.393527382948
 23
71.92622770070366
 33
0.0
 14
191.393527382948
 24
74.61881303964389
 34
0.0
100
AcDbRotatedDimension
  0
DIMENSION
  5
16AF
330
1F
100
AcDbEntity
  8
MAßE
100
AcDbDimension
  2
*D16
 10
290.8935271500943
 20
49.06600502772517
 30
0.0
 11
206.2634124123949
 21
49.06600502772517
 31
0.0
 70
   160
 71
     5
 42
128.4999997671461
  3
ISO-25
100
AcDbAlignedDimension
 13
162.3935273829481
 23
76.42622770070365
 33
0.0
 14
290.8935271500943
 24
71.92622770070369
 34
0.0
100
AcDbRotatedDimension
  0
DIMENSION
  5
16BC
330
1F
100
AcDbEntity
  8
MAßE
100
AcDbDimension
  2
*D17
 10
268.8935271500948
 20
60.11675268139251
 30
0.0
 11
268.8935271500943
 21
60.35300268139245
 31
0.0
 70
   164
 71
     5
 42
7.999999999999928
  3
ISO-25
100
AcDbRadialDimension
 15
268.8935271500943
 25
68.11675268139244
 35
0.0
 40
0.0
1001
ACAD
1000
DSTYLE
1002
{
1070
   288
1070
     1
1002
}
  0
HATCH
  5
1925
330
1F
100
AcDbEntity
  8
linien
100
AcDbHatch
 10
0.0
 20
0.0
 30
0.0
210
0.0
220
0.0
230
1.0
  2
SOLID
 70
     1
 71
     1
 91
        1
 92
        7
 72
     1
 73
     1
 93
        2
 10
907.7212584647476
 20
448.9615707705187
 42
1.0
 10
899.7212584647476
 20
448.9615707705187
 42
1.0
 97
        1
330
1929
 75
     0
 76
     1
 47
0.1091777941617187
 98
        1
 10
905.1033489981799
 20
447.9937903352639
  0
HATCH
  5
1926
330
1F
100
AcDbEntity
  8
Fläche-5
100
AcDbHatch
 10
0.0
 20
0.0
 30
0.0
210
0.0
220
0.0
230
1.0
  2
SOLID
 70
     1
 71
     1
 91
        2
 92
        7
 72
     1
 73
     1
 93
        6
 10
900.4140693259168
 20
446.7115707705187
 42
0.0
 10
897.7212584647475
 20
446.7115707705187
 42
0.0
 10
897.7212584647475
 20
442.7115707705187
 42
0.0
 10
909.7212584647476
 20
442.7115707705186
 42
0.0
 10
909.7212584647476
 20
446.7115707705187
 42
0.0
 10
907.0284476035784
 20
446.7115707705187
 42
-0.5291502622129297
 97
        6
330
1937
330
1928
330
1936
330
1929
330
193A
330
1927
 92
        7
 72
     1
 73
     1
 93
        6
 10
907.0284476035784
 20
451.2115707705187
 42
0.0
 10
909.7212584647476
 20
451.2115707705187
 42
0.0
 10
909.7212584647477
 20
455.2115707705186
 42
0.0
 10
897.7212584647476
 20
455.2115707705186
 42
0.0
 10
897.7212584647475
 20
451.2115707705186
 42
0.0
 10
900.4140693259168
 20
451.2115707705187
 42
-0.5291502622129137
 97
        6
330
193D
330
1929
330
193B
330
1928
330
193C
330
1927
 75
     0
 76
     1
 47
0.1091777941617187
 98
        2
 10
906.195615243592
 20
444.2817454723382
 10
906.6325203840186
 20
453.1251468555263
  0
LINE
  5
1927
102
{ACAD_REACTORS
330
1926
102
}
330
1F
100
AcDbEntity
  8
linien
100
AcDbLine
 10
909.7212584647476
 20
436.7115707705187
 30
0.0
 11
909.7212584647477
 21
455.2115707705186
 31
0.0
  0
LINE
  5
1928
102
{ACAD_REACTORS
330
1926
102
}
330
1F
100
AcDbEntity
  8
linien
100
AcDbLine
 10
897.7212584647475
 20
436.7115707705187
 30
0.0
 11
897.7212584647476
 21
455.2115707705186
 31
0.0
  0
CIRCLE
  5
1929
102
{ACAD_REACTORS
330
1925
330
1926
102
}
330
1F
100
AcDbEntity
  8
linien
100
AcDbCircle
 10
903.7212584647475
 20
448.9615707705187
 30
0.0
 40
4.0
  0
LINE
  5
192A
102
{ACAD_REACTORS
330
192C
102
}
330
1F
100
AcDbEntity
  8
linien
100
AcDbLine
 10
897.7212584647475
 20
436.7115707705187
 30
0.0
 11
897.7212584647476
 21
418.2115707705188
 31
0.0
  0
LINE
  5
192B
102
{ACAD_REACTORS
330
192C
102
}
330
1F
100
AcDbEntity
  8
linien
100
AcDbLine
 10
909.7212584647476
 20
436.7115707705187
 30
0.0
 11
909.7212584647477
 21
418.2115707705188
 31
0.0
  0
HATCH
  5
192C
330
1F
100
AcDbEntity
  8
Fläche-5
100
AcDbHatch
 10
0.0
 20
0.0
 30
0.0
210
0.0
220
0.0
230
1.0
  2
SOLID
 70
     1
 71
     1
 91
        2
 92
        7
 72
     1
 73
     1
 93
        6
 10
909.7212584647477
 20
430.711570770519
 42
0.0
 10
897.7212584647475
 20
430.7115707705187
 42
0.0
 10
897.7212584647475
 20
426.7115707705188
 42
0.0
 10
900.4140693259168
 20
426.7115707705187
 42
-0.5291502622129297
 10
907.0284476035784
 20
426.7115707705187
 42
0.0
 10
909.7212584647477
 20
426.7115707705187
 42
0.0
 97
        6
330
192E
330
192A
330
192F
330
1930
330
1933
330
192B
 92
        7
 72
     1
 73
     1
 93
        6
 10
909.7212584647477
 20
422.2115707705188
 42
0.0
 10
907.0284476035784
 20
422.2115707705187
 42
-0.5291502622129137
 10
900.4140693259168
 20
422.2115707705188
 42
0.0
 10
897.7212584647476
 20
422.2115707705188
 42
0.0
 10
897.7212584647476
 20
418.2115707705188
 42
0.0
 10
909.7212584647477
 20
418.2115707705188
 42
0.0
 97
        6
330
1934
330
1930
330
1931
330
192A
330
192D
330
192B
 75
     0
 76
     1
 47
0.1091777941617187
 98
        2
 10
906.195615243592
 20
429.1413960686993
 10
906.6325203840186
 20
420.2979946855113
  0
LINE
  5
192D
102
{ACAD_REACTORS
330
192C
102
}
330
1F
100
AcDbEntity
  8
linien
100
AcDbLine
 10
897.7212584647476
 20
418.2115707705188
 30
0.0
 11
909.7212584647476
 21
418.2115707705188
 31
0.0
  0
LINE
  5
192E
102
{ACAD_REACTORS
330
192C
102
}
330
1F
100
AcDbEntity
  8
linien
100
AcDbLine
 10
897.7212584647476
 20
430.7115707705188
 30
0.0
 11
909.7212584647477
 21
430.7115707705188
 31
0.0
  0
LINE
  5
192F
102
{ACAD_REACTORS
330
192C
102
}
330
1F
100
AcDbEntity
  8
linien
100
AcDbLine
 10
897.7212584647476
 20
426.7115707705188
 30
0.0
 11
900.4140693259168
 21
426.7115707705187
 31
0.0
  0
CIRCLE
  5
1930
102
{ACAD_REACTORS
330
1932
330
192C
102
}
330
1F
100
AcDbEntity
  8
linien
100
AcDbCircle
 10
903.7212584647475
 20
424.4615707705188
 30
0.0
 40
4.0
  0
LINE
  5
1931
102
{ACAD_REACTORS
330
192C
102
}
330
1F
100
AcDbEntity
  8
linien
100
AcDbLine
 10
897.7212584647476
 20
422.2115707705188
 30
0.0
 11
900.4140693259168
 21
422.2115707705188
 31
0.0
  0
HATCH
  5
1932
330
1F
100
AcDbEntity
  8
linien
100
AcDbHatch
 10
0.0
 20
0.0
 30
0.0
210
0.0
220
0.0
230
1.0
  2
SOLID
 70
     1
 71
     1
 91
        1
 92
        7
 72
     1
 73
     1
 93
        2
 10
899.7212584647476
 20
424.4615707705188
 42
1.0
 10
907.7212584647476
 20
424.4615707705188
 42
1.0
 97
        1
330
1930
 75
     0
 76
     1
 47
0.1091777941617187
 98
        1
 10
905.1033489981799
 20
425.4293512057736
  0
LINE
  5
1933
102
{ACAD_REACTORS
330
192C
102
}
330
1F
100
AcDbEntity
  8
linien
100
AcDbLine
 10
907.0284476035784
 20
426.7115707705187
 30
0.0
 11
909.7212584647476
 21
426.7115707705187
 31
0.0
  0
LINE
  5
1934
102
{ACAD_REACTORS
330
192C
102
}
330
1F
100
AcDbEntity
  8
linien
100
AcDbLine
 10
907.0284476035784
 20
422.2115707705187
 30
0.0
 11
909.7212584647476
 21
422.2115707705187
 31
0.0
  0
LINE
  5
1935
330
1F
100
AcDbEntity
  8
linien
100
AcDbLine
 10
909.7212584647476
 20
426.7115707705187
 30
0.0
 11
909.7212584647476
 21
426.7115707705187
 31
0.0
  0
LINE
  5
1936
102
{ACAD_REACTORS
330
1926
102
}
330
1F
100
AcDbEntity
  8
linien
100
AcDbLine
 10
897.7212584647476
 20
446.7115707705187
 30
0.0
 11
900.4140693259168
 21
446.7115707705187
 31
0.0
  0
LINE
  5
1937
102
{ACAD_REACTORS
330
1926
102
}
330
1F
100
AcDbEntity
  8
linien
100
AcDbLine
 10
897.7212584647476
 20
442.7115707705187
 30
0.0
 11
909.7212584647477
 21
442.7115707705186
 31
0.0
  0
LINE
  5
1938
330
1F
100
AcDbEntity
  8
ACHSEN
100
AcDbLine
 10
897.7212584647475
 20
436.7115707705187
 30
0.0
 11
909.7212584647476
 21
436.7115707705187
 31
0.0
  0
LINE
  5
1939
330
1F
100
AcDbEntity
  8
linien
100
AcDbLine
 10
909.7212584647476
 20
446.7115707705187
 30
0.0
 11
909.7212584647476
 21
446.7115707705187
 31
0.0
  0
LINE
  5
193A
102
{ACAD_REACTORS
330
1926
102
}
330
1F
100
AcDbEntity
  8
linien
100
AcDbLine
 10
907.0284476035784
 20
446.7115707705187
 30
0.0
 11
909.7212584647476
 21
446.7115707705187
 31
0.0
  0
LINE
  5
193B
102
{ACAD_REACTORS
330
1926
102
}
330
1F
100
AcDbEntity
  8
linien
100
AcDbLine
 10
897.7212584647476
 20
451.2115707705186
 30
0.0
 11
900.4140693259168
 21
451.2115707705187
 31
0.0
  0
LINE
  5
193C
102
{ACAD_REACTORS
330
1926
102
}
330
1F
100
AcDbEntity
  8
linien
100
AcDbLine
 10
897.7212584647476
 20
455.2115707705186
 30
0.0
 11
909.7212584647476
 21
455.2115707705186
 31
0.0
  0
LINE
  5
193D
102
{ACAD_REACTORS
330
1926
102
}
330
1F
100
AcDbEntity
  8
linien
100
AcDbLine
 10
907.0284476035784
 20
451.2115707705187
 30
0.0
 11
909.7212584647476
 21
451.2115707705187
 31
0.0
  0
VIEWPORT
  5
3AA
102
{ACAD_XDICTIONARY
360
1D26
102
}
330
1B
100
AcDbEntity
 67
     1
  8
0
100
AcDbViewport
 10
133.9645578014069
 20
87.23896048164681
 30
0.0
 40
389.2566860050828
 41
249.0863951808681
 68
     1
 69
     1
 12
133.9645578014069
 22
87.23896048164681
 13
0.0
 23
0.0
 14
10.0
 24
10.0
 15
10.0
 25
10.0
 16
0.0
 26
0.0
 36
1.0
 17
0.0
 27
0.0
 37
0.0
 42
50.0
 43
0.0
 44
0.0
 45
249.0863951808681
 50
0.0
 51
0.0
 72
   100
 90
    32800
  1

281
     0
 71
     1
 74
     0
110
0.0
120
0.0
130
0.0
111
1.0
121
0.0
131
0.0
112
0.0
122
1.0
132
0.0
 79
     0
146
0.0
1001
GENIUS_GENODEF_13
1002
{
1000
HIER
1070
     0
1002
}
1002
{
1000
MANEDIT
1070
     0
1002
}
1002
{
1000
NOSEL
1070
     0
1002
}
1002
{
1000
BEHIND
1070
     0
1002
}
1002
{
1000
OTHER
1070
     0
1002
}
1002
{
1000
REACTOR
1002
}
1001
GENIUS_GENOBJ-N-SDF_13
1002
{
1000
OWNER
1000
GEN
1002
}
1001
GENIUS_GENSCREG_15
1000
PF
1040
1.0
1000
DF
1040
1.0
1000
MIN
1011
-60.66378520113449
1021
-37.30423710878722
1031
0.0
1000
MAX
1011
328.5929008039483
1021
211.7821580720808
1031
0.0
1000
FLAGS
1070
     2
  0
VIEWPORT
  5
3AC
102
{ACAD_XDICTIONARY
360
1D28
102
}
330
1B
100
AcDbEntity
 67
     1
  8
DEFPOINTS
100
AcDbViewport
 10
145.5164370976796
 20
95.22652981240872
 30
0.0
 40
286.1261252372567
 41
186.3269230271886
 68
     2
 69
     2
 12
224.4062085874452
 22
77.64754382843934
 13
0.0
 23
0.0
 14
10.0
 24
10.0
 15
10.0
 25
10.0
 16
0.0
 26
0.0
 36
1.0
 17
0.0
 27
0.0
 37
0.0
 42
50.0
 43
0.0
 44
0.0
 45
136.11518072265
 50
0.0
 51
0.0
 72
   100
 90
    32864
  1

281
     0
 71
     1
 74
     0
110
0.0
120
0.0
130
0.0
111
1.0
121
0.0
131
0.0
112
0.0
122
1.0
132
0.0
 79
     0
146
0.0
1001
GENIUS_GENODEF_13
1002
{
1000
HIER
1070
     0
1002
}
1002
{
1000
MANEDIT
1070
     0
1002
}
1002
{
1000
NOSEL
1070
     0
1002
}
1002
{
1000
BEHIND
1070
     0
1002
}
1002
{
1000
OTHER
1070
     0
1002
}
1002
{
1000
REACTOR
1002
}
1001
GENIUS_GENOBJ-N-SDF_13
1002
{
1000
OWNER
1000
GEN
1002
}
1001
GENIUS_GENSCREG_15
1000
PF
1040
0.0
1000
DF
1040
0.0
1000
MIN
1011
2.453374479051262
1021
2.063068298814414
1031
0.0
1000
MAX
1011
288.579499716308
1021
188.389991326003
1031
0.0
1000
FLAGS
1070
     2
  0
ENDSEC
  0
SECTION
  2
OBJECTS
  0
DICTIONARY
  5
C
330
0
100
AcDbDictionary
281
     1
  3
ACAD_COLOR
350
906
  3
ACAD_GROUP
350
D
  3
ACAD_LAYOUT
350
1A
  3
ACAD_MATERIAL
350
905
  3
ACAD_MLINESTYLE
350
17
  3
ACAD_PLOTSETTINGS
350
19
  3
ACAD_PLOTSTYLENAME
350
E
  3
AcAsAppObject
350
94E
  3
ACASGREF_MASTER
350
996
  3
ACDBHEADERROUNDTRIPXREC
350
1D1D
  3
AcDbVariableDictionary
350
43F
  3
AcmDictionary
350
9CA
  3
AD_GREF_MODULE
350
997
  3
AD_MAPI_MODULE
350
9B0
  3
AMG
350
947
  3
AMGSNAPSETTINGS
350
A1C
  3
DWGPROPS
350
1D1C
  3
MAPISURF_MODULE
350
998
  0
DICTIONARY
  5
A11
330
1F
100
AcDbDictionary
280
     1
281
     1
  3
ACAD_INDEX
360
1C0D
  0
DICTIONARY
  5
1D2A
330
8F1
100
AcDbDictionary
280
     1
281
     1
  3
ACAD_XREC_ROUNDTRIP
360
1D2B
  0
DICTIONARY
  5
1D2C
330
8F3
100
AcDbDictionary
280
     1
281
     1
  3
ACAD_XREC_ROUNDTRIP
360
1D2D
  0
DICTIONARY
  5
1D26
330
3AA
100
AcDbDictionary
280
     1
281
     1
  3
ACAD_XREC_ROUNDTRIP
360
1D27
  0
DICTIONARY
  5
1D28
330
3AC
100
AcDbDictionary
280
     1
281
     1
  3
ACAD_XREC_ROUNDTRIP
360
1D29
  0
DICTIONARY
  5
906
102
{ACAD_REACTORS
330
C
102
}
330
C
100
AcDbDictionary
281
     1
  0
DICTIONARY
  5
D
102
{ACAD_REACTORS
330
C
102
}
330
C
100
AcDbDictionary
281
     1
  0
DICTIONARY
  5
1A
102
{ACAD_REACTORS
330
C
102
}
330
C
100
AcDbDictionary
281
     1
  3
Layout1
350
1E
  3
Layout2
350
26
  3
Model
350
22
  0
DICTIONARY
  5
905
102
{ACAD_REACTORS
330
C
102
}
330
C
100
AcDbDictionary
281
     1
  0
DICTIONARY
  5
17
102
{ACAD_REACTORS
330
C
102
}
330
C
100
AcDbDictionary
281
     1
  3
Standard
350
18
  0
DICTIONARY
  5
19
102
{ACAD_REACTORS
330
C
102
}
330
C
100
AcDbDictionary
281
     1
  0
ACDBDICTIONARYWDFLT
  5
E
102
{ACAD_REACTORS
330
C
102
}
330
C
100
AcDbDictionary
281
     1
  3
Normal
350
F
100
AcDbDictionaryWithDefault
340
F
  0
ACAD_PROXY_OBJECT
  5
94E
102
{ACAD_REACTORS
330
C
102
}
330
C
100
AcDbProxyObject
 90
      499
 91
      529
 95
   131097
 70
     0
 93
       10
310
407E
 94
        0
1001
ACAD
1000
AcRTDxfName
1000
ASAPP
  0
ACAD_PROXY_OBJECT
  5
996
102
{ACAD_REACTORS
330
C
102
}
330
C
100
AcDbProxyObject
 90
      499
 91
      535
 95
   131097
 70
     0
 93
       34
310
0100004040
 94
        0
1001
ACAD
1000
AcRTDxfName
1000
ACASGREFMASTER
  0
DICTIONARY
  5
1D1D
102
{ACAD_REACTORS
330
C
102
}
330
C
100
AcDbDictionary
281
     1
  3
COLORDICT
350
1D1F
  3
MATERIALDICT
350
1D1E
  0
DICTIONARY
  5
43F
102
{ACAD_REACTORS
330
C
102
}
330
C
100
AcDbDictionary
281
     1
  3
DIMASSOC
350
1D1A
  3
INDEXCTL
350
1D19
  3
PROJECTNAME
350
1D1B
  3
SORTENTS
350
440
  0
DICTIONARY
  5
9CA
102
{ACAD_REACTORS
330
C
102
}
330
C
100
AcDbDictionary
281
     1
  3
AcmStdDictionary
350
9D7
  0
ACAD_PROXY_OBJECT
  5
997
102
{ACAD_REACTORS
330
C
102
}
330
C
100
AcDbProxyObject
 90
      499
 91
      536
 95
   131097
 70
     0
 93
      114
310
00000043808000000000000000002F
 94
        0
1001
ACAD
1000
AcRTDxfName
1000
ACADGREFMODULE
  0
ACAD_PROXY_OBJECT
  5
9B0
102
{ACAD_REACTORS
330
C
102
}
330
C
100
AcDbProxyObject
 90
      499
 91
      546
 95
   131097
 70
     0
 93
       34
310
05000044C0
 94
        0
1001
ACAD
1000
AcRTDxfName
1000
MAPIADMODULE
  0
DICTIONARY
  5
947
102
{ACAD_REACTORS
330
C
102
}
330
C
100
AcDbDictionary
281
     1
  0
DICTIONARY
  5
A1C
102
{ACAD_REACTORS
330
C
102
}
330
C
100
AcDbDictionary
281
     1
  0
XRECORD
  5
1D1C
102
{ACAD_REACTORS
330
C
102
}
330
C
100
AcDbXrecord
280
     1
  1
DWGPROPS COOKIE
  2

  3

  4

  6

  7

  8
di25263
  9

300
AmdtFileType=84
301
=
302
=
303
=
304
=
305
=
306
=
307
=
308
=
309
=
 40
0.5307540393518519
 41
2451730.527086343
 42
2454656.356393947
  1

 90
        1
  0
ACAD_PROXY_OBJECT
  5
998
102
{ACAD_REACTORS
330
C
102
}
330
C
100
AcDbProxyObject
 90
      499
 91
      537
 95
   131097
 70
     0
 93
        8
310
047E
 94
        0
1001
ACAD
1000
AcRTDxfName
1000
AMDTMAPISURFMOUDULE
  0
DICTIONARY
  5
1C0D
102
{ACAD_REACTORS
330
A11
102
}
330
A11
100
AcDbDictionary
281
     1
  3
*A1
350
1C0E
  0
XRECORD
  5
1D2B
102
{ACAD_REACTORS
330
1D2A
102
}
330
1D2A
100
AcDbXrecord
280
     1
102
SHADEPLOT
 70
     0
  0
XRECORD
  5
1D2D
102
{ACAD_REACTORS
330
1D2C
102
}
330
1D2C
100
AcDbXrecord
280
     1
102
SHADEPLOT
 70
     0
  0
XRECORD
  5
1D27
102
{ACAD_REACTORS
330
1D26
102
}
330
1D26
100
AcDbXrecord
280
     1
102
SHADEPLOT
 70
     0
  0
XRECORD
  5
1D29
102
{ACAD_REACTORS
330
1D28
102
}
330
1D28
100
AcDbXrecord
280
     1
102
SHADEPLOT
 70
     0
  0
LAYOUT
  5
1E
102
{ACAD_XDICTIONARY
360
1D20
102
}
102
{ACAD_REACTORS
330
1A
102
}
330
1A
100
AcDbPlotSettings
  1

  2
\\NT41\TWVW19
  4
A4
  6

 40
4.180416584014892
 41
12.47772598266601
 42
4.180404663085937
 43
3.17498779296875
 44
209.9733276367187
 45
297.0106506347656
 46
0.0
 47
0.0
 48
0.0
 49
0.0
140
0.0
141
0.0
142
1.0
143
1.0
 70
   688
 72
     1
 73
     1
 74
     5
  7

 75
    16
147
1.0
148
0.0
149
0.0
100
AcDbLayout
  1
Layout1
 70
     1
 71
     1
 10
-3.17498779296875
 20
-4.180416584014892
 11
293.8356628417969
 21
205.7929110527039
 12
0.0
 22
0.0
 32
0.0
 14
2.453374479051262
 24
2.063068298814414
 34
0.0
 15
288.579499716308
 25
188.389991326003
 35
0.0
146
0.0
 13
0.0
 23
0.0
 33
0.0
 16
1.0
 26
0.0
 36
0.0
 17
0.0
 27
1.0
 37
0.0
 76
     0
330
1B
331
3AA
  0
LAYOUT
  5
26
102
{ACAD_XDICTIONARY
360
1D24
102
}
102
{ACAD_REACTORS
330
1A
102
}
330
1A
100
AcDbPlotSettings
  1

  2
EPSON Stylus CX6600 Series
  4
A4
  6

 40
3.757083177566528
 41
3.757076978683471
 42
3.757080078125
 43
3.757080078125
 44
209.9733276367187
 45
296.8977661132813
 46
0.0
 47
0.0
 48
0.0
 49
0.0
140
0.0
141
0.0
142
1.0
143
1.0
 70
   688
 72
     1
 73
     1
 74
     5
  7

 75
    16
147
1.0
148
0.0
149
0.0
100
AcDbLayout
  1
Layout2
 70
     1
 71
     2
 10
-3.757080078125
 20
-3.757083177566528
 11
293.1406860351562
 21
206.2162444591522
 12
0.0
 22
0.0
 32
0.0
 14
5.269619637339133
 24
2.544045557476636
 34
0.0
 15
286.1557340060699
 25
184.4636139642596
 35
0.0
146
0.0
 13
0.0
 23
0.0
 33
0.0
 16
1.0
 26
0.0
 36
0.0
 17
0.0
 27
1.0
 37
0.0
 76
     0
330
23
331
8F1
  0
LAYOUT
  5
22
102
{ACAD_XDICTIONARY
360
1D22
102
}
102
{ACAD_REACTORS
330
1A
102
}
330
1A
100
AcDbPlotSettings
  1

  2
EPSON Stylus COLOR 640
  4

  6

 40
0.0
 41
0.0
 42
0.0
 43
0.0
 44
0.0
 45
0.0
 46
0.0
 47
0.0
 48
0.0
 49
0.0
140
0.0
141
0.0
142
1.0
143
1.0
 70
  1712
 72
     0
 73
     0
 74
     0
  7

 75
     0
147
1.0
148
0.0
149
0.0
100
AcDbLayout
  1
Model
 70
     1
 71
     0
 10
0.0
 20
0.0
 11
12.0
 21
9.0
 12
0.0
 22
0.0
 32
0.0
 14
0.0
 24
0.0
 34
0.0
 15
0.0
 25
0.0
 35
0.0
146
0.0
 13
0.0
 23
0.0
 33
0.0
 16
1.0
 26
0.0
 36
0.0
 17
0.0
 27
1.0
 37
0.0
 76
     0
330
1F
  0
MLINESTYLE
  5
18
102
{ACAD_REACTORS
330
17
102
}
330
17
100
AcDbMlineStyle
  2
STANDARD
 70
     0
  3

 62
   256
 51
90.0
 52
90.0
 71
     2
 49
0.5
 62
   256
  6
BYLAYER
 49
-0.5
 62
   256
  6
BYLAYER
  0
ACDBPLACEHOLDER
  5
F
102
{ACAD_REACTORS
330
E
102
}
330
E
  0
XRECORD
  5
1D1F
102
{ACAD_REACTORS
330
1D1D
102
}
330
1D1D
100
AcDbXrecord
280
     1
340
906
  0
XRECORD
  5
1D1E
102
{ACAD_REACTORS
330
1D1D
102
}
330
1D1D
100
AcDbXrecord
280
     1
340
905
  0
DICTIONARYVAR
  5
1D1A
102
{ACAD_REACTORS
330
43F
102
}
330
43F
100
DictionaryVariables
280
     0
  1
1
  0
DICTIONARYVAR
  5
1D19
102
{ACAD_REACTORS
330
43F
102
}
330
43F
100
DictionaryVariables
280
     0
  1
1
  0
DICTIONARYVAR
  5
1D1B
102
{ACAD_REACTORS
330
43F
102
}
330
43F
100
DictionaryVariables
280
     0
  1

  0
DICTIONARYVAR
  5
440
102
{ACAD_REACTORS
330
43F
102
}
330
43F
100
DictionaryVariables
280
     0
  1
1
  0
DICTIONARY
  5
9D7
102
{ACAD_REACTORS
330
9CA
102
}
330
9CA
100
AcDbDictionary
281
     1
  0
LAYER_INDEX
  5
1C0E
102
{ACAD_REACTORS
330
1C0D
102
}
330
1C0D
100
AcDbIndex
 40
2454656.356393947
100
AcDbLayerIndex
  8
0
360
1C0F
 90
        0
  8
ACHSEN
360
1C10
 90
        3
  8
HILFSLINIEN
360
1C11
 90
        0
  8
DEFPOINTS
360
1C12
 90
        0
  8
MAßE
360
1C13
 90
       16
  8
UNSICHTBAR
360
1C14
 90
        0
  8
linien
360
1C15
 90
       66
  8
BEMAßUNG
360
1C16
 90
        0
  8
Unsichtbare
360
1C17
 90
        0
  8
Fläche-1
360
1C18
 90
        0
  8
Fläche-2
360
1C19
 90
        0
  8
Fläche-3
360
1C1A
 90
        0
  8
Fläche-4
360
1C1B
 90
        0
  8
Fläche-5
360
1C1C
 90
        2
  8
Fläche-6
360
1C1D
 90
        0
  8
linie2
360
1C1E
 90
        0
  0
DICTIONARY
  5
1D20
330
1E
100
AcDbDictionary
280
     1
281
     1
  3
ACAD_XREC_ROUNDTRIP
360
1D21
  0
DICTIONARY
  5
1D24
330
26
100
AcDbDictionary
280
     1
281
     1
  3
ACAD_XREC_ROUNDTRIP
360
1D25
  0
DICTIONARY
  5
1D22
330
22
100
AcDbDictionary
280
     1
281
     1
  3
ACAD_XREC_ROUNDTRIP
360
1D23
  0
IDBUFFER
  5
1C0F
330
0
100
AcDbIdBuffer
  0
IDBUFFER
  5
1C10
330
0
100
AcDbIdBuffer
330
13F2
330
1403
330
1938
  0
IDBUFFER
  5
1C11
330
0
100
AcDbIdBuffer
  0
IDBUFFER
  5
1C12
330
0
100
AcDbIdBuffer
  0
IDBUFFER
  5
1C13
330
0
100
AcDbIdBuffer
330
156F
330
157C
330
1589
330
1596
330
15A8
330
15B5
330
15C7
330
15D4
330
15F5
330
1616
330
165A
330
1669
330
1681
330
16A2
330
16AF
330
16BC
  0
IDBUFFER
  5
1C14
330
0
100
AcDbIdBuffer
  0
IDBUFFER
  5
1C15
330
0
100
AcDbIdBuffer
330
192A
330
192B
330
192D
330
192E
330
192F
330
1930
330
1931
330
1932
330
1933
330
1934
330
1935
330
1936
330
1937
330
1939
330
193A
330
193B
330
193C
330
193D
330
13F0
330
13F1
330
13F3
330
13F4
330
13F5
330
13F6
330
13F7
330
13F8
330
13F9
330
13FA
330
13FB
330
13FC
330
13FD
330
13FE
330
13FF
330
1400
330
1401
330
1402
330
1404
330
1405
330
1409
330
140D
330
1410
330
1411
330
1414
330
1415
330
1419
330
141A
330
141B
330
141C
330
141D
330
141E
330
141F
330
1420
330
1421
330
153A
330
153B
330
1540
330
1541
330
1542
330
1543
330
1544
330
1545
330
1546
330
1925
330
1927
330
1928
330
1929
  0
IDBUFFER
  5
1C16
330
0
100
AcDbIdBuffer
  0
IDBUFFER
  5
1C17
330
0
100
AcDbIdBuffer
  0
IDBUFFER
  5
1C18
330
0
100
AcDbIdBuffer
  0
IDBUFFER
  5
1C19
330
0
100
AcDbIdBuffer
  0
IDBUFFER
  5
1C1A
330
0
100
AcDbIdBuffer
  0
IDBUFFER
  5
1C1B
330
0
100
AcDbIdBuffer
  0
IDBUFFER
  5
1C1C
330
0
100
AcDbIdBuffer
330
1926
330
192C
  0
IDBUFFER
  5
1C1D
330
0
100
AcDbIdBuffer
  0
IDBUFFER
  5
1C1E
330
0
100
AcDbIdBuffer
  0
XRECORD
  5
1D21
102
{ACAD_REACTORS
330
1D20
102
}
330
1D20
100
AcDbXrecord
280
     1
102
SHADEPLOT
 70
     1
102
SHADEPLOTRESLEVEL
 70
     2
102
SHADEPLOTCUSTOMDPI
 70
   150
  0
XRECORD
  5
1D25
102
{ACAD_REACTORS
330
1D24
102
}
330
1D24
100
AcDbXrecord
280
     1
102
SHADEPLOT
 70
     0
102
SHADEPLOTRESLEVEL
 70
     2
102
SHADEPLOTCUSTOMDPI
 70
   300
  0
XRECORD
  5
1D23
102
{ACAD_REACTORS
330
1D22
102
}
330
1D22
100
AcDbXrecord
280
     1
102
SHADEPLOT
 70
     0
102
SHADEPLOTRESLEVEL
 70
     2
102
SHADEPLOTCUSTOMDPI
 70
   300
  0
ENDSEC
  0
EOF
